&title=MAdEaR MAdEaR
&artist=SLAVE.V-V-R feat. 東雲はる
&first=0.093
&des=Kurage
&lv_5=13+
&inote_5=(200)
{1},
{1}8x<8b[4:6],,
{4}2h[4:3],E8,C,E4,1pp1[8:5],{8}5,5,{4},,
{4}7h[4:3],E2,C,E6,{8}8,8-5[16:5],,4,{4},,
{4}27,E1,C,E5,{8}36,3V58[16:7]/6V41[16:7],{4},,,
{4}E1,B7,B3,E5,
{8}2bV41-5b[8:4]/6b,6bV47[8:3]/2b,,,,,,6b<1[8:1],,3<6[8:1],3,8b-4[8:1],,1,1,,
{8}7bV58-4b[8:4]/3b,3bV52[8:3]/7b,,,,,,3b>8[8:1],,6>3[8:1],6,1b-5[8:1],,8,8,,
{16}3b/6b,,2,1,2,,7,8,7,,2,1,3,,7,8,6,,3,4,3,,6,5,6,,1,8,1,,{8}2bqq7[4:3]/7b,
{8},E1f,,,,E5,,6bpp2[4:3],,E8f,,,,E5,,3bqq6[4:3],
{8},E2f,,,,E5,,5xbs1b[16:9]*qq4b[16:9],,,,,,,,8b,
{8}
,4,4-2[8:1],,6-4[8:1],,1,,3qq4[16:7],,5,5,,6<1[8:1],,2h[4:1],
,4,4,3<6[8:1]/5,,7-3[8:1],,8V26[4:1],,4,4V68[8:3]*qq5[8:3],,,,,,
67,67,67,5b/8b<5[8:1],,1b>4[8:1]/8b,,1b/4b,,6,5/6h[4:1],,8,8,17,,
2h[4:1],,4,4-6[8:1],,2-6[8:1],,8,,7,7h[4:1],5,5,4/6<3[4:1],,2,
,,1-4[8:1]/8-5[8:1],,1b/8b,,3x/6x,,
2b-6[8:1],,4<2[8:3],4,8,,4-1[8:1],,6x-2[8:1],,8>6[8:3],8,4,,8-5[8:1],,
2x-6[8:1],,4-1[8:1],,8>3[8:1],,7-3[8:1],,6x>3[8:1],,1-5[8:1],,4w8[8:1],,4,,
2bV46[8:3]/6b,,,8,8-5[8:1],,1-4[8:1],,6<3[8:3],6q3[4:1],,,,,18,3b/7bh[8:9],
{8},,{48}E2,B2,E4,,,,,,,,,,E7,B7,E1,,,,,,,,,,E4,B4,E6,,,,,,,,,,
{48}E1,B1,E3,,,,,,,,,,B7,C,A3,,,,,,,,,,E6,B5,E4,,,,,,,,,,{8}18,2bh[8:9]/6b,
{8},,{48}E8,B7,E6,,,,,,,,,,E3,B2,E1,,,,,,,,,,E6,B5,E4,,,,,,,,,,
{48}E1,B8,E7,,,,,,,,,,B2,C,A6,,,,,,,,,,E4,B4,E6,,,,,,,,,,{8}81,7b/3bV52b[4:1],
{8},1p8[8:3],1,,,,,3b/7bV16b[4:1],,5p4[8:3],5,,,,,3b-7-3b[4:1]/7b,
{8},1<2[8:4],1>7[8:3],,,,,,4b/5b,4b/5b,4b/5b,3b/6b,2b/7b,1b/8b>7b[8:3],,,
{8}Cf,,{16}8-4[8:1],1,2,3,{8}48,,5-1[8:1]/6,,8,,{16}26,37,48,15,{8}2-7[8:1]/6-3b[8:1],,2/6<4[16:5],,
{8}1,,5-1[8:1],,7-4[8:1],,3-7[8:1]/7,,1<6[8:1],,5w1[8:1]/1,,5,,3x>6[16:3]/7x,,
{8}5b,,{16}1-5[8:1],8,7,6,{8}51,,3/4-8[8:1],,1,,{16}73,62,51,84,{8}7/3-7b[8:1],,13,1bV35[4:1],
{8},5-2[8:1],6,,8-4b[8:1],8,1,2b>8[16:5],,2,1w5b[8:1],,Cf,,3x>6b[16:3]/7x,,
{8}5b,,{16}1-5[8:1],8,7,6,{8}51,,4-8[8:1]/3,,1,,{16}73,62,51,84,{8}7-2[8:1]/3-6b[8:1],,7/3>5[16:5],,
{8}8,,4-8[8:1],,2-5[8:1],,6-2[8:1]/2,,8>3[8:1],,4w8[8:1]/8,,4,,6x<3[16:3]/2x,,
{8}4b,,{16}8-4[8:1],1,2,3,{8}48,,6/5-1[8:1],,8,,{16}6,7,8,1,2-6b[8:1],3,4,5,62,7,8bV64[4:1],,
{8},4-7[8:1],3,,1-5b[8:1],1,8,7b<1[16:5],,7,8w4b[8:1],,Cf,,6xpp5b[8:5]/2x,,
{8}E8,,E3,,E5,,2xpp1[8:5],,E4,,E7,,E1,,7bh[4:7],,
{32}2xb,3x,4x,5x,6xb,,8x,1x,2x,3x,4x,5x,6x,,8x,1x,2xb,3x,4x,5x,6xb,,8x,1x,2x,3x,4x,5x,6x,,8x,1x,2xb,3x,4x,5x,6xb,,8x,1x,2x,3x,4x,5x,6x,,8x,1x,2xb,3x,4x,5x,6xb,7x,8x,1x,2x,3x,4x,5x,6xb/E1f/A8/A1/B8/B1,,,,
{8},,,,,,,,8q1[4:2],,,,,,,,8b<4b[8:1],4b>8b[8:1],,
