&title=アイディスマイル
&artist=25時、ナイトコードで
&first=0.01999999
&des=Yui
&des_6=Yui
&lv_6=13.7
&inote_6=(171){4},{8},,,,,,3h[8:11]/4h[8:5],
,,,,,,5v8<6[8:5],
,,,,,,{4}2,
{8}7h[8:5]/5h[8:5],,,,,,,6/3>8q4[8:5],
,,,,,7,{4}7,
{8}6/5,6,{4}4>2[8:1],{8}4,8-2-6[2:1],,2,
,E4,,E5,,7/5,5,7,
3,6,{4}4/6<8[8:1],{8}6,4,,6/5,
,4/3,,5/4,3,2/8,1,2,
3,4,{4}5-3[8:1],{8}5/7,6,5,4-8[8:1],
,5-1[8:1],,3p6[4:1],,,,8,
{4}7-5[8:1],{8}3,2>4-8>2[2:1],,8,,7,
,7xh[4:5],{4}1xh[8:9],{8},,,,,,,,7/1,
{16}3,4,{8}2,1/5,
{16}2,4,3,4,{8}2,4,3/5,6,7/8,1,
2/4,3,5/4,6,7/8,{16}6,5,{8}7,8/4,
{16}7,5,6,5,{8}7,6,5/4,3,2/1,8,
{16}2,4,{8}3,{16}7,8,{8}6,{16}3,4,2,4,{8}3,5h[8:3],
2,3-8[8:1],,3/6-4[8:1],,6/1-5[8:1],,1/8h[8:5],
,,4,5,{4}6>3[8:1],{8}1,1<6[8:1],
,1>4[8:1],,1,8,7,{4}6/5,
4/8,{16}4v7[8:1]/8-3[8:1],7/3,6/2,5/1,{4}4bx/8bx,C,
E2,B2,B3,E4,
E7/E5,E6,E5/E3,E4,
{8}C,,,5x,{4}5x<1[4:1],{8}1x,1xp4[4:1],
,4x,{4}4xq7[8:3],,1,
2,3,{8}5h[8:3]/4h[4:1],,,1,
2h[8:3]/6h[4:1],,,8,{2}7h[4:1]/3h[4:1],
C,{4}8b-2>3[8:1],{8}8,7,
6,4/5<7[8:1],,5/3,{4}1>4[8:1],{8}1/8,7,
{4}6/5x>2[8:1],{8}5/6,7,{4}8/1xp5[8:1],{8}1/2,3,
{4}4-7[8:1],{8}1/4,2,{4}6/3<6[8:1],6>3[8:1],
2,C,{8}7/1-5[8:1],7,7/1>4[8:1],7,
{4}7/1,{8}8/7,8/7,{4}7/8>2[8:1],5<7[8:1],
1>3[8:1],6qq5[4:1],{8}5<3[8:3],,,2,
2h[8:3],,,B6/E6,,7/B3/E4,,2/B6/E7/B7,
,8/B3/E3/B2,,5,{4}4/6h[4:1],{8}3,4/2h[4:1],
,5h[2:1],{16},,6,7,8-6-4[8:1],1,2,3,{4}4,
{8}7b/2b,,,6,{4}6/4,{8}2,4/2,
,3,,3h[8:3],,1b,7b,5b,
3b,E7/B7/B6,{4}E7/B7/B6,8-4[8:1]/2v4[8:1],8/2v5[8:1],
2/6v1[8:1],{8}6,4,3,2-8[8:1],,2/4,
{4}5<8[8:1],1-6[8:1],{8}2h[8:3],,,6,
{1}2-5-3-8[8:7]/6-1-7-4[8:7],
{2},7h[2:3],
{4}A1/B1/E2,C,{2}B5/A5/E5,
2h[2:3],{4}A8/B8/E1,C,
{8}B5/A5/E5,,,7,{4}7qq5[4:1],{8}8,8>4[4:1],
,6,{4}6h[2:1],{8},,1,2,
{4}3-1[8:1],{8}4,4-8[8:1],,5,{4}5pp4[8:3],
3,{8}2,2,{4}1>5qq3[2:1],{8}6,6,
,7,{4}7,8/2,{8}6,7,
{4}8<4pp4[8:5],{8}1,1,,2,{4}2,
3h[4:1],5pp1>3[1:1],{2}5h[4:5],
{4},,,6,
7/5,{8}3,4/2,,5qq5[2:1],{4}5pp5[8:3],
{8},,,,E2,B2,B3,B7,
B6,E6,B1,B2,B3,B7,B6,B5,
E1,E2,E3,E7,E6,E5,1,2,
3,7,6,5,2,3,4,8,
7,6,2/4,3,4,7/5,6,5,
1,E3,B4,8,E7,B5,2,4,
7,5,1,4,8h[8:3],{16},,,,6,7,
6,7,6,7,6,7,6,7,{4}6<3[2:1],5,
{8}5,,,4h[8:3],{16},,,,5,4,5,4,
5,4,5,4,{4}5-1[8:1],6,{8}6,7-3[8:1],
,8,{4}1-5[8:1],{8}2,3-7[8:1],,8,
8h[8:3],,,7h[8:3],,,{4}6h[8:3],
{8},5h[8:3],,,{4}4<6[4:3],{48}4x,D4,A3,D3,{4},,,{16},,{24},{4}1-4[2:3],
,,,E7,
,,,8-5[2:3],
,,,E3,
,,,1h[4:3]/7h[8:7],
{8},,,,,1h[1:1],{4}7h[8:7],
{24},,,,,,,,,,,,,,,,2/6,3/5,{4}4b-6<7[8:1],
{8}4,3,2,8/1>3[8:1],,1/8,{4}7-5-1[4:1],
{8}7/1-7[8:1],2,{4}3-8-4[4:1],{8}3/4-2[8:1],5,{4}7<5-1[4:1],
{8}7/1<7[8:1],2,{4}3-5-2[4:1],{8}3/5,6,{4}7<4[8:1],
4<7[8:1],8,C,{8}3/6-4[8:1],3,
3/6<1[8:1],3,{4}6/3,{8}4/3,4/3,{4}3/4<7[8:1],
1>4[8:1],5<8[8:1],2pp4[4:1],4>6[8:3],
{8},7,{4}7h[8:3],{48},,,,,,3,D4,A4,D5,,,,,,,,,7,E7,B6,B5,,,,,,,,,2,
E3,B3,B4,,,,,,,,,8,D8,A7,D7,,,,,,,,,{8}4,{4}5/3h[4:1],
{8}6,5/7h[4:1],,4h[2:1],{16},,3,2,1>5b[8:1],8,7,6,
{4}5,2b/7b,{8},3,{4}3/5,
{8}7,5/7,,6,,6h[8:3],,8b,
2b,4b,6b,E3/B2/B3,{4}E3/B2/B3,6v1[8:1]/2v5[8:1],
2/6>4[8:1],6/3>8[8:1],{8}3,5,6,7-1[8:1],
,7/2,{4}3p7[8:1],6<4b[2:1],5h[4:1],
{8},5x,{4}5x-2>4v1b[1:1]*-8<6v1[1:1],,,,,,3/4,
1h[4:1],{8}8,1/7,6/1,1/5,{4}4/1xV35[16:3],
{8}7,6x>2[16:3],,8,{4}1xs5[4:1],{8}5w1[4:1],7,
E
