&title=脳内革命ガール
&artist=MARETU; 初音ミク
&first=0
&des_1=RE:RE:REVOLUTION
&des_2=RE:RE:REVOLUTION
&des_3=RE:RE:REVOLUTION
&des_4=RE:RE:REVOLUTION
&des_5=浮世開化ボーイ
&lv_5=13+
&des_6=RE:RE:REVOLUTION
&des_7=RE:RE:REVOLUTION
&des=RE:RE:REVOLUTION
&inote_5=(240){4}
,,,,,,,,,,,,
{8}
2h[4:8],,4,,,,5,,
,,4,,,,6,,
7h[4:4],,5,,,,3,,
1h[4:4],,4,,,,6,,
7<2[4:6],,2,,,,1,,
,,8,,,,1,,
34,,26,,18,,37,,
{12}5,,5,4,,6,5,7,2,4,,,
{8}
3<6[8:3],,6,,8,,7,,
3<6[8:3],,6,,8,,7,,
7>2[8:2],,2,,4-1[8:2],,8,,
6v5[8:2],,3,,3-8[8:2],,7,,
6>3[8:3],,3,,1,,2,,
6>3[8:3],,3,,1,,2,,
2<7[8:2],,7,,5-1[8:2],,1,,
2q6[8:2],,7,,8<5[8:2],,4,,
2-6[8:2],,6,,5-1[8:2],,1,,
3-7[8:2],,7,,8-4[8:2],,4,,
2-6-8[8:4],,7,,4,,5,,
7V15[8:4],,4,,5,,2,,
7-3[8:2],,3,,4-8[8:2],,8,,
6-2[8:2],,2,,1-5[8:2],,5,,
{12}6,,,78,,2,1,,7,8,,,
{8}6h[4:3]/1,,2,,3,,4,,
5bh[4:1]/7,,{12},,,65,,7,5,,4,
5,,,3-8[16:3],,,4,,,6,,,
6,,6,5,,5,4,,4,3-1[8:1]*-8[8:1],,,
,,,7h[12:6],,,,,,5,6,4,
5h[12:6],,,,,,4,5,3,4h[12:3],,,
3,4,2,5,,,34,,,17,,5,
4,,,26,,,{12}48,,,2,,1/2-5[8:1],
,,,8,,,7,,,56,,,
3V17[8:3]/4,,,5,,,6,,,5,,,
4V61[8:3],,,3,,,1,,,2,,,
3-7[8:2],,,7,,,5-1[8:2],,,1,,,
2-6[8:2],,,5h[12:6],,,,,,2,4,3,
6h[12:6],,,,,,5,7,2,4h[12:3],,,
1,5,3,7h[12:6],,,,,,3,,3,
4,,,34,,,45,,,56,,,
1,,,24,,,35,,,46,,,
7V13[4:2],,,5,,,,,,4,,,
5V38[4:2],,,6,,,,,,7,,,
7>3[4:2],,,,,,3V57[4:2],,,,,,
7z3[4:2],,,,,,,,,,,,
4>1[8:2],,,,,,5<8[8:2],,,,,,
4>1[8:2],,,7,,,5<8[8:2],,,2,,,
3,,3,4,,4,3,4,2,6,5,7,
3b,,,,,,,,,,,,
4>5[4:6],,,,,,,,,,,,
E7/B6/B7,,,,,,,,,,,,
4>5[4:6],,,,,,,,,,,,
Ch[4:3],,,,,,,,,,,,
2-4[8:1]/1,,,,,,1-5[8:1]/8,,,,,,
7-5[8:1]/8,,,,,,8-4[8:1]/1,,,,,,
2-5[8:1],,,7-4[8:1],,,1-5[8:1],,,8-4[8:1],,,
3h[4:2],,,,,,A6f/E6/E7,,,,,,
1/2-5[8:1],,,6,,,7-4[8:1]/8,,1,7,,,
1/2-5[8:1],,,6,,,7-4[8:1]/8,,1,7,,,
2-6[8:1]/8-4[8:1],,,,,,3,,46,,7,,
18,,1,7,,7,3,4,2,6,5,7,
2b,,,6,,3,4,,2,1,,7,
8-3[8:1],,,7-4[8:1],,,8-3[8:1],,,6,,,
7,8,7,2,1,2,8w4[8:1],,,,,,
2,,,47,,,7,5,6,4,5,3,
4-7[8:1],,,1,,,3-8[8:1]/4,,,6,,,
4-7[8:1]/3,,,2,,,3-8[8:1]/4,,,7,,,
1-5[8:1]/6b,,,,,,7,,46,,2,,
18,,,5>6[4:2]/6<5[4:2],,,5b/6b,,,,,,
,,,2,,2,4,,4,1,,1,
7<4[8:1],,,8>3[8:1],,,7-3[8:1],,,8-4[8:1],,,
,,,6,,6,5,,5,8,,8,
2>5[8:1],,,1<6[8:1],,,2-6[8:1],,,1-5[8:1],,,
3h[4:4],,,,,,,,,,,,
4,2,6,5,7,3,1,2,7,8,6,2,
5h[4:4],,,,,,,,,,,,
B5/B4/E5,,,2h[4:1],,,6h[4:1],,,4h[4:1],,,
7-5[8:1],,,3,,,8-4[8:1],,3,3,,,
2-4[8:1],,,6,,,1-5[8:1],,6,6,,,
7b-3[8:1],,,,,,{12}2,,34,,56,,
7,5,6,3,4,2,8,1,7,8,6,5,
7h[8:2],,,3,,2,1,,3,5<1[8:2],,,
1>5[8:2],,,5qq8[12:5],,,,,,,,,
1,2,3,7,6,5,4-8[8:1]/3,,,,,,
5-1[8:1]/6,,,,,,6,7,8,1,2,3,
4/5pp1[12:8],,,,,2,2,,,,,4,
4qq8[12:8],,,5,,,8,,,7,,,
7,,,18,,,34,,45,,56,,
7h[12:2],,8h[12:2],,1h[12:2],,2bV48[8:3],,,,,,
,,,7,6,5,2,3,4,8,7,6,
1,2,3,5,6,7,4,3,2,1/8h[8:2],,,
3,4,2,6,5,7,1,4,3,8,5,6,
1V72-6-3-5[4:3],,,,,,,,,,,,
{4}8xh[4:16],,,,
A4/E5/E4,,,,
A6/E6/E7,,,,
A2/E2/E3,,,,
4x>1[4:3],,,,
5x<8[4:3],,,,
4x>1[4:3],,,,
5xh[4:4],,,,
{12}3h[4:2],,,,,4,4h[12:6],,,,,5,
5h[12:6],,,6,,,6h[12:12],,,,,,3,,,
4,,,5h[12:12],,,,,,
8,,,7,,,6,,,,,,
3h[12:3],,,,,,2h[12:3]/4,,,,,,
6h[12:3],,,,,,7h[12:3]/5,,,,,,
4,,4,5,,5,3,,3,7,,7,
1h[12:9],,,3,,,5,,,7b,,,
1/2-5[8:1],,,2/8b,,,7p3[8:1],,1,1b,,,
1/2-5[8:1],,,2/8b,,,7p3[8:1],,1,1b,,,
2b-6[8:1]/8b-4[8:1],,,,,,3,,24,,35,,
46,,4,5,,3,4,2,5,4,6,5,
7b,,,12,,8,1,,2,1,,7,
8q4[8:1],,,7p3[8:1],,,1-5[8:1],,,6,,,
7,8,7,2,1,2,8w4[8:1],,,,,,
1w5[8:1],,,,,,3,2,1,7,6,5,
3-8[8:1]/4,,,7b,,,4/5-8[8:1],,2,2b,,,
4-1[8:1]/5,,,7b,,,5/6-1[8:1],,2,2b,,,
3-8[8:1],,,5b,,,6,,78,,18,,
1<5[4:1]/2,,,5>1[4:1],,,1s5[12:4],,,,,,
,,,3,,2,1,,6,5,,7,
8-4[8:1],,,7-3[8:1],,,2-6[8:1],,,1-5[8:1],,,
3,,,4,,7,8,,3,4,,2,
1-5[8:1],,,2-6[8:1],,,7-3[8:1],,,8-4[8:1],,,
5h[12:12],,,,,,,,,,,,
3,4,2,6,5,7,3,4,1,6,5,8,
3bh[8:6],,,,,,,,,,,,
4b/5b,,,3,6,4,5,,,27,,,
3<6[8:3],,,6,,,8,,,7,,,
3<6[8:3],,,6,,,8,,,7,,,
3-7[4:1],,,7,,,8-4[4:1],,,4,,,
2-6[4:1],,,6,,,5-1[4:1],,,1,,,
2<7[8:3],,,6,,,5,,,6,,,
2<7[8:3],,,7,,,5,,,6,,,
3,,,56,,2,4,,7,5,,,
18,,,3,,,4,,,5,,,
6bh[8:2],,,,,,2h[4:1]/4,,,,,,
1-4[8:2],,,6h[4:2],,,,,,2,,,
3<6[8:3],,,6,,,8,,,7V15[4:2],,,
,,,3h[4:2],,,,,,4,2,4,
3h[4:2],,,,,,1,2,1,3h[4:1],,,
4,2,4,3h[4:1],,,5,,,46,,7,
5,,,34,,,12,,,7,,6/8>5[8:5],
,,,5,,,6,,,7,,,
8-5[8:2]/1h[4:1],,,,,,3h[4:1],,,,,,
2-5[8:2],,,5,,,6-1[8:2],,,1,,,
3,,,2,,,6,,,75,,,
4-1[8:2],,,6h[4:2],,,,,,
5,7,5,6h[4:2],,,,,,8,7,8,6h[4:1],,,
5,7,5,6h[4:2],,,,,,3,,3,
4,,,24,,,35,,,46,,,
7,,,78,,,18,,,12,,,
4b/5b,,,E
E
