&title=the Tower of NIRV(ニルヴの心臓)
&artist=TJ.hangneil + Atomic Sphere feat.Annabel
&first=0.89
&des=Kurage
&lv_5=14+
&inote_5=(256)
{8}
4b/5b,,3,3,7h[4:1],,5,,
5h[4:1]/B7/B6,,,,4h[4:1],5,5,,
3h[4:1],,E5,E3,E6,E2,C,,
A7/E8/A8/B7/B8,,1xh[8:1],5,2xh[8:1],5,3-6[4:1],,
B6/E6,,,,7,5,7-2[4:1],,
3,,3h[8:1],,B4,B5,2x,,
5b/4b,,6,6,2h[4:1],,4,,
4h[4:1]/B2/B3,,,,5h[4:1],4,4,,
6h[4:1],,E5,E7,E4,E8,C,,
A2/E2/A1/B2/B1,,8xh[8:1],4,7xh[8:1],4,6-3[4:1],,
B3/E4,,,,2,4,2-7[4:1],,
6,,6h[8:1],,B5,B4,7x,,
{8}
5b-3[8:1]/6b,,7-5[8:1],,2xh[4:1],,4x-7-1-5[16:9],4x,
B2/B3,,,3,3,,4-2[8:1],,
6,6-4[8:1],,1-5[8:1],,7x-3[8:1],,4xqq5[16:9],
,,5,,6,6<1[8:1],,4>1[8:1],
,C,,,7-3[8:1]/8,,1,1-4[8:1]*-6[8:1],
,C,,,8-5[8:1]/1-4[8:1],,1x/8x,,
6xbqq6b[4:2]/3xb,6x,,2xh[8:2],,,3xqq3b[4:2],3x,
B7/B6,,,6,6,,5-7[8:1],,
3,3-5[8:1],,8-4[8:1],,2x-6[8:1],,5xpp4[16:9],
,,4,,3,3>8[8:1],,5<8[8:1],
,C,,,2-6[8:1]/1,,8,8-5[8:1]*-3[8:1],
,C,,,2h[256:1]/4h[256:1],2h[256:1]/4h[256:1],2h[256:1]/4h[256:1],2h[256:1]/4h[256:1],
{8}
2x/4x>2<7<5[4:4],,,E3,,,E5,,E7,,E1,,2x>4<5<7[4:3]/4x,,,E5,,,C,,E1,,,,
2x/4x>2<7<5[4:4],,,E3,,,E5,,E7,,E1,,2xh[4:1]/4x,,6h[4:1],,8h[4:1],,2h[4:1],,4h[4:1],,6,,
7x/5x<7>2>4[4:4],,,E7,,,E5,,E3,,E1,,7x<5>4>2[4:3]/5x,,,E5,,,C,,E1,,,,
7x/5x<7>2>4[4:4],,,E7,,,E5,,E3,,E1,,7xpp2[4:3]/5x,,,E4,,,E6,,4,4,5,5,
{8}
3x<4-2<1-5[8:7],,7,7h[4:1],,,6h[8:1],,7h[8:1],,8,,
7x<6-4-8-2[8:7]/3x,,2,2h[4:1],,,3h[8:1],,4h[8:2],,,,
3x<4-2<1-5[8:7]/5x,,7,7h[4:1],,,6h[8:1],,7h[8:1],,8,,
7xV51[4:2]/3x,,5,,1V37[4:2],,3,,5,,5,,
6x>5-7>8-4[8:7]/4x,,2,2h[4:1],,,3h[8:1],,2h[8:1],,1,,
2x>3-5-1-7[8:7]/6x,,7,7h[4:1],,,6h[8:1],,5h[8:2],,,,
6x>5-7>8-4[8:7]/4x,,2,2h[4:1],,,3h[8:1],,2h[8:1],,1,,
1bw5[16:15]/5h[256:1],,,,,,,,,,,,
{4}3/7-1s5-3[4:28]*-3[4:15],,,,,,,,,,,,,,,,,,,,2-6[4:1],,,,6-2[4:1],,,,2,,2h[4:1],4h[8:1],
{8}
3b/4,,4,,35,,7,7h[8:3],3,,,,36,5,,5,
4x-2[8:1],,B5,,6x-4[8:1],,2h[8:1],,1x-5[8:1],,E6/E5,,7h[4:1],,5h[8:1],,
6b/5,,5,,64,,2,2h[8:3],6,,,,63,,4,4,
5-7[8:1],,4,,3-5[8:1],,7h[8:1],,8-4[8:1],,4,,3,3,4,,
2b/4,,5,,26,,8,8h[8:3],2,,,,26,5,,5,
4-2[8:1],,5,,6-4[8:1],,2h[8:1],,1-5[8:1],,5,,6,6,5,,
7b/5,,4,,73,,1,1h[8:3],7,,,,73,,4,4,
5x-7[8:1],,B4,,3x-5[8:1],,7h[8:1],,8x-4[8:1],,E4/E5,,2,2,6,6,
{8}
5b/4b-8b[8:1],,2,2-5[8:1],,6,6-2b[8:1],,1-6[8:1],,4,4-1[8:1]*-7[8:1],,,,,
6/5<8b[8:1],,3,3-6[8:1],,1,1-5b[8:1],,4-7[8:1],,8h[8:1],,{16}2,1,2,,{8}31,,
4b/5b-1b[8:1],,7,7-4[8:1],,3,3-7b[8:1],,8-3[8:1],,5,5-8[8:1]*-2[8:1],,,,,
3/4>1b[8:1],,6,6-3[8:1],,8,8-4b[8:1],,5-2[8:1],,1h[8:1],,{16}7,8,7,,{8}68,,
{8}
4b-6[8:1]/5b,,2-4b[8:1],,8-4[8:1]/2,,8,,
3-5[8:1]/5-7[8:1],,5-1b[8:1],,8-6[8:1],,28,,
5b-3[8:1]/4b,,7-5b[8:1],,1-5[8:1]/7,,1,,
6-4[8:1]/4-2[8:1],,4-8b[8:1],,1-3[8:1],,17,,
{8}
6b-4b[8:1],6,2-8[8:1],2,7-3b[8:1],7,3,,
2b-4b[8:1],2,8-6[8:1],8,1-5b[8:1],1,5,,
{8}
2/4bh[8:1],2,6/5bh[8:1],6,3/4bh[8:1],3,5bh[8:1]/7,7,
{16}
4b,5,4,5,3,6,3,6,
{32}
2,3,4,5,6,7,8,1,2,3,4,5,6,7,8,1,
{4}
2>4q5<6[4:6],,,,,,,,8>1-7v6>5[4:6],,,,,,,,
4>3q2<8[4:6],,,,,,,,6p8>1p3[4:5],,,,,,,,
2>4q5<6[4:6]/4h[8:3],,,,,,,,8>1-7v6>5[4:6]/6h[8:3],,,,,,,,
4>3q2<8[4:6]/2h[8:3],,,,,,,,6>5-7p2-4>3[4:5]/8h[8:3],,,,Ch[4:2],,,,
{8}
1bqq1[4:7],1h[4:1],,,2,2,2,2,2,2,2,2,2,2,2,2,
3qq3[4:7],3h[4:1],,,4,4,4,4,4,4,4,4,4h[256:1],4h[256:1],4h[256:1],4h[256:1],
5qq5b[4:7],5h[4:1],,,6h[256:1],6h[256:1],6h[256:1],6h[256:1],6h[256:1],6h[256:1],6h[256:1],6h[256:1],6,6,6,6,
7z3[4:6],7h[4:1],,,8,8,8,8,2,2,6,6,4,,C,,
8bpp8[4:7],8h[4:1],,,7,7,7,7,7,7,7,7,7,7,7,7,
6pp6[4:7],6h[4:1],,,5,5,5,5,5,5,5,5,5h[256:1],5h[256:1],5h[256:1],5h[256:1],
4pp4b[4:7],4h[4:1],,,3h[256:1],3h[256:1],3h[256:1],3h[256:1],3h[256:1],3h[256:1],3h[256:1],3h[256:1],3,3,3,3,
2s6[4:6],2z6[8:11],,,,,,,,,,,,,,,
{8}
5b-8[8:1]/7b-5[8:1],,5-3[8:1],,2V41[4:1],,2,7-3[8:1],
,8,8h[8:1],,15,2,4,3h[8:1],
{16}5,4,5,,{8}3h[16:1],3h[16:1],4h[16:1]/2h[16:1],4h[16:1]/2h[16:1],15,,
4b-6[8:1]/2b-4[8:1],,4-1[8:1],,7V58[4:1],,7,2-6[8:1],
,1,1h[8:1],,84,7,5,6h[8:1],
{16}4,5,4,,{8}6h[16:1],6h[16:1],5h[16:1]/7h[16:1],5h[16:1]/7h[16:1],45,,
4b-1[8:1]/2b-4[8:1],,4-6[8:1],,7V58[4:1],,7,2-6[8:1],
,1,1h[8:1],,84,7,5,6h[8:1],
{16}4,5,4,,{8}6h[16:1],6h[16:1],5h[16:1]/7h[16:1],5h[16:1]/7h[16:1],48,,
5b-3[8:1]/7b-5[8:1],,5-8[8:1],,2V41[4:1],,2,7-3[8:1],
,8,8h[8:1],,15,15,24,24,{16}3,3,3,3,{4}3-7[16:5]*-7[16:5],,,
{8}6b-8[8:1]/8b-2[8:1],,8-4[8:1],,3V52[4:1],,3,7-3[8:1],
,,1h[8:1],,5,3,2/4-6[8:1],,1,1-5[8:1],,8>3[8:1],,4qq5[16:9],,5,
,6,6-2[8:1],,7,7-5[8:1],,1-3[8:1],
,8-4[8:1],,8,3<6[8:1],,3,1-6[8:1]*-4[8:1],
,1,,,8-5[8:1]/1-4[8:1],,81,,
3xbpp3b[4:2]/6xb,3x,,7xh[8:2],,,6xpp6b[4:2],6x,
2,2,,3,3,,4-2[8:1],,
8,8-4[8:1],,1<6[8:1],,5pp4[16:9],,4,
,3,3-7[8:1],,2,2-4[8:1],,8-6[8:1],
,1-5[8:1],,1,6>3[8:1],,6,8-3[8:1]*-5[8:1],
,8,,,2h[256:1]/4h[256:1],2h[256:1]/4h[256:1],2h[256:1]/4h[256:1],2h[256:1]/4h[256:1],
{8}3b-5[8:1]/4b-8[8:1],,4>1[8:1],,6V47[4:1],,6,2-6[8:1],
,,1,1-7[8:1],3-5[8:1],3,6,,84,8-4[8:1],,2-6[8:1],,5pp4[16:9],,4,
,3,3-7[8:1],,2,2-5[8:1],,8-5[8:1],
,1-5[8:1],,1,6>3[8:1],,6,8-3[8:1]*-5[8:1],
,8,,,8-5[8:1]/1-4[8:1],,81,,
6xbqq6b[4:2]/3xb,6x,,2xh[8:2],,,3xqq3b[4:2],3x,
7,7,,5,5,,6-8[8:1],,
1,1-5[8:1],,7-3[8:1],,4qq5[16:9],,5,
,6,6-2[8:1],,7,7-4[8:1],,1-4[8:1],
,8-4[8:1],,8,3<6[8:1],,3,1-6[8:1]*-4[8:1],
,1,,,7h[256:1]/5h[256:1],7h[256:1]/5h[256:1],7h[256:1]/5h[256:1],7h[256:1]/5h[256:1],
{4}6V41[4:13]*q1[16:50],,,,,,,,,,,,,,,,
{8}2b-4[8:1],2,6,6h[8:1],{16}5-1b[8:1],6,5,7-5[8:1],,,,,
{8}2-8[8:1],2,4,4h[8:1],{16}1,5,1,5,2,3,4,,
{8}7-5[8:1],7,3,3h[8:1],{16}4-8b[8:1],3,4,2-4[8:1],,,,,
{8}7-1[8:1],7,5,5h[8:1],{16}8,4,8,4,7,6,5,,
{16}
2b-4b[8:1],,1,,2,,8h[8:1],,5,6,5,7,4-6[8:1],3,2-4[8:1],,
4-8b[8:1],,2,,8,,7h[8:1],,1,7,1,7,2,3,4,5,
7b-5b[8:1],,8,,7,,1h[8:1],,4,3,4,2,5-3[8:1],6,7-5[8:1],,
5-1b[8:1],,7,,1,,2h[8:1],,8,2,8,2,7,6,5,4,
{8}
1b-3b[8:1],6-8[8:1],1,6V47b[4:1],4,6,2,2,
8b-6b[8:1],3-1[8:1],8,3V52b[4:1],5,3,7,7,
8bh[8:1]/1,3,4/2bh[8:1],6,4bh[8:1]/5,7,8/6bh[8:1],2,
{16}1b,8,2,6,5,7,3,4,{32}2,1,8,7,6,5,4,3,2,1,8,7,6,5,4,3,26,
