&title=Caladrius
&artist=Team Grimoire
&first=0.238
&lv_5=14+
&des_5=zzyzy
&inote_5=
(195){4},{8},,,,,,6x,
5x/7x,{16},,3,4,{8}3,{16}6,5,{8}6,{16}2,1,
{8}2,{16}7,8,{8}7,6/2,{16}5x,6x,{8}7x,{16}4x,3x,{8}2x,
{16}8x,7x,{8}6x,2,3,{4}4/8-6[8:1],{16}8/1,2,3,4,
{8}5,5,6,{16}3,3,{8}4,5/3,{16}5,6,7,8,
{8}1,{16}3,4,{8}2,5/3,{16}1,2,3,4,{8}5/7,{16}1,8,
7,6,8,7,{8}6,5,6,{16}7/4,3,2,1,3,2,
{8}1bqq3[8:5],5,5,4,5,5,4,5,
5/4p1[4:5],{16}6,6,{8}4b,5,7,6,8,5,
6,8,7,5,7,6,{16}5,6,7,8,
{8}1bpp7b[4:3],5,5,4,5,5,4,5,
4,{16}3,3,{8}4,{16}6,6,5,,,5/3,,,8,7,
6,5,7,6,5,4,6,5,{12}4,E2,B7,E4,B5,E2,
{4}2bxh[2:1]/Cf,{8}7,6,5,4-7[8:1],,4/3-8[8:1],
,3/4,5,6,7,8-5[8:1],,8/1-4[8:1],
,1/8,7,6,5,4-8[8:1],5,4/3-7[8:1],
,3/6,5,5,4,4v1[8:1],,5/4,
{4}B7/B6,{8}2/4,3,4/6-2[8:1],2-6[8:1],6/E8/D8,E1/D1,
{4}3>8[8:1],{8}3/5,6,7-3[8:1],3-7[8:1],7/E6/D6,E5/D5,
4,3/5,3/5,4/2,3/5,4/6,5/7,{16}6bx/8bx,1,
2,3,4,5,6,7,8,1,{24}5x/2,4x,3x,2x,1x,8x,7x,6x,5x,4x,3x,2x,
{2}1xpp4[4:3],{4}6,6,
7,1/5,{16}2b/4b,,,4b/5b,,,{8}5b/7b,
{4}8-4[4:1],8/3,1-5[4:1],1/6,
{8}8,7,{16}6,5,6,5,{8}6,2,{16}3,4,3,4,
{4}2<7[8:1]/5-1[8:1],2/5,{8}2-6[8:1],7-3[8:1],2,7,
{4}1-5[8:1],1/5,8-4[8:1],8/4,
{8}8/1,7,6,5,4,3,2,1/8,
{16}7b,8,6,1,5,2,1,3,8b,4,7,5,{4}6v1[8:1]*v3[8:1],
D7/D6/A6f,{16}2,3,4,5,3,4,5,6,4,5,6,7,
8/4,1,2,3,4/8,5,6,7,8/4,1,2,3,4/8,5,6,7,
{4}8/4v7[8:1]*v1[8:1],D4/D5/A4f,2-7[8:1]/6-3[8:1],2/6,
4/8,{8}B7/B8,3,E6/B6,2,E5/B4,1,
{16}8/1,7,6,5,4,3,2,1,4,3,2,1,8,7,6/2,5/1,
{8}4/8-4[8:1],3,3/8,3,6/3-8[8:1],6,6/3,{16}7,6,
{1}5bv8<6-2[2:3]*v2>4-8[2:3],
{8},,,,,,,1h/6h,
{16}2b/Cf,,,6b/Cf,,,{8}4b/Cf,{16},,6,5,7,4,8,3,
6b/Cf,,,1b/Cf,,,{8}7b/Cf,{16},,3,4,2,5,1,6,
{8}7/3,{16}3,4,{8}2,1/5,{16}6,5,{8}7,8/4,7/3,
{4}6xv3[8:1]/2x-7[8:1],2/6,{2}2x-5b[8:1]/6xv1b[8:1],
{4}8h[8:1]/Ch[4:3],7h[8:1],6h[8:1],5h[8:1],
1h[8:1]/Ch[4:3],2h[8:1],3h[8:1],4h[8:1],
{8}3/5,{16}2,4,{8}1,8/4,{16}6,5,{8}7,{4}8-4[8:1]/1z5[8:1],
1b/8b,{8}6/2,6/2,6/2,7,{16}8,7,6,5,
1b-4[16:1],,,7b-3[16:1],,,{8}2b-5[16:1],{16},,A6,D7,A7,D8,A8,D1,
1bx-6[16:1],,,3b-8[16:1],,,{8}7b-4[16:1],{16},,A3,D3,A2,D2,A1,D1,
{8}8/6,{16}7,8,{8}5,6/2,{16}3,5,{8}2,4/7,5/6,
{16}4,2,5,3,6,4,6,5,6,5,7,4,8,3,6,2,
{1}7>3V17[2:3]*<3V57[2:3],
{16},,,,,,,,,,,,,,,,3b,
4,3,4,1b,8,1,8,5b,6,5,6,4b,5,4,5,
{12}3b,4,1,6b,5,8,{4}6-2[8:1]/2-6[8:1],2/6/Cf,
1h[16:7],{8}8,8,{16}2,3,4,5,8/6,1,2,3,
{4}6/4h[16:7],{8}5,5,{16}3,2,1,8,7/5,4,3,2,
{8}5/1-5[8:1],2,1,7-3[8:1],6,7,2,8/4,
{4}4q8[8:1]/8q4[8:1],4/8,1w5[8:1],1,
7-3[8:1]/3-7[8:1],Cf,{16}2h[8:1]/5h[8:1],,,4h[8:1]/6h[8:1],,,{8}1/5,
{2}7<4[8:1]/3>8[8:1],7w3b[8:1],
{8}7/5,{16}3,4,{8}3,2/5,{16}6b/Cf,,,3b/Cf,,,{8}8b/Cf,
{16}2/7,6/3,{8}4/5,{16}2,1,2,1,8,3,7,4,6,5,6,4,
{4}5h[16:7]/Cf,{8}4bx,4bx,{16}6,7,8,1,2/4,5,6,7,
{4}8/4h[16:7],{8}5bx,5bx,{16}3,2,1,8,7/5,4,3,2,
{8}1/5,5/1,{16}1/5,2/6,{8}3/7,4/8,8/4,{16}8pp7[4:1]/4pp3[4:1],7/3,6/2,1/5,
{2}8/4,{16}7,6,5,4,6,5,4,3,
{4}2/6v1[8:1]*v3[8:1],6,{8}6/4>8[4:1],6,6,6,
{12}6,5,7,3,4,2,7,8,6,2,1,3,
{24}8,4,8,4,8,4,8,4,8,4,8,4,8,4,8,4,8,4,8,4,8,4,8,4,
{8}8,{24}1,2,3,{8}4,{24}7b/8h[8:1],6,5,{8}4,{24}2b/1h[8:1],3,4,5,6,7,8,1,2,
{1}7h[4:3]/3q8>2-7<3[2:7],
6h[4:3],
{2}8h[4:1],6h[4:1],
7h[4:1],{4}5,6,
{1}3h[4:3]/7q4<6-3>7[2:7],
4h[4:3],
{2}2h[4:1],4h[4:1],
3h[4:1],{4}4,3,
{8}8b/2v5>3-1<8[2:3],7,,7,,7,,7b,
6,5,,5,,5,,5b,
6/2>5V38-4[2:3],7,,7,,7,,7b,
6,5,,5,,5,,5b,
6/2,6/2,6/2,6/2,7/3,7/3,7/3,7/3,
4/8,7/3,6/2,5/1,1/5,6/2,3/7,8/4,
{16}7,5h,1,3h,7,1h,5,3h,8,4h,6,2h,8,2h,6,4h,
{2}8,{4}5w1[8:1],Cf,
{8}7/E2,5/E3,6/3h[8:3],6,{24}6,5,{12}4,{24}2,1,4/8h[8:1],5,6,7,1,2,
{8}3/E6,1/E7,2/7h[8:3],2,{24}2,1,{12}8,{24}6,5,8/4h[8:1],1,2,3,5,6,
{8}7/E1,E2,{16}7h[8:1]/E3,B3,B4,E5,{8}E1,E8,{16}2h[8:1]/E7,B6,B5,E5,
1,3,2,4,3,5,4,5,3,5,2,5,{24}1,2,3,4,5,6,
{4}7-3[8:1],{24}7/2,3,4,5,6,7,8,1,2,3/5,6,7,8,1,2,3,4,5,
{4}6-2[8:1],{24}6/3,2,1,8,7,6,5,4,3,2/8,7,6,5,4,3,2,1,8,
{4}7/3>8[8:1],{24}7,6,5,4,,,{4}6<1[8:1],{24}2,3,4,5,{48},,,,{16}8b,
4,8b,3,8b,2,8b,1,8b,7,6,5,7,6,5,4,
{4}7/3>6[4:1],{24}B5/B4,B6,B7,B8,B1,B2,B3/A3,A4,A5,A6,A7,A8,{4}1x-5b[8:1],
1/Cf/2<5[4:1],{24}B4/B3,B5,B6,B7,B8,B1,B2/A2,A3,A4,A5,A6,A7,{4}8x-4b[8:1],
8/Cf,{8}2,2,5,5,3/7,7/3,
{24}1b,2,3,8b,7,6,1b,2,3,8b,7,6,2b,3,4,7b,6,5,4,3,2,1,8,7,
{16}6,4,5,3,4,3,5,2,5,1,6,2,{8}E8,B6,
{16}3,5,4,6,5,6,4,7,4,8,3,7,{8}E2,B3,
{16}2b,5,3,4,2b,5,3,4,2b,5,3,4,2b,5,3,4,
{8}2b,{24}7/8h[8:1],6,5,{8}4,{24}2/1h[8:1],3,4,{8}5,{16}8,4,7,3,6,2,
{8}5/1,{16}3,4,{8}3,{24}8b/7b,6b/1b,5b/2b,{2}3b/4bz8b[4:5],
E
&lv_6=1
&des_6=
&inote_6=
(195)
E
