&title=いますぐ輪廻
&artist=なきそ
&first=0.5
&des=SnapDot
&lv_5=13
&lv_6=13
&inote_5=(145)
(580)
{1}C,
(145)
{24}1x/8x,7x/2x,3xv2-4[6:1]/6xv7-5[6:1],,,,,,,,,,,,,3/6,,,3/5,,,2/4h[8:1],,,
{16}1,4,1,4,1,5,1>4[8:1],,,,5,,
{8}5-1[8:1],5,3-8[8:1],3,6-2[8:1],6,5-1[8:1],5,
{16}E8/B8,,E7/D7,,4,,4,6,,6,5-3[8:1],,7x-5[8:1],,,,,,,,
{24}2x/7x,3x/6x,5xv6-8[6:1]/4xv3-1[6:1],,,,,,,,,,,,,2/7,,,2/8,,,1h[8:1]/3,,,
{16}3,1,3,8,3,8,3<6[8:1],,,,,,,,7,7,
{16}5h,,,,,,4,4,6-4[8:1],,,,C,,,,
{16}3/5h[8:1],,2,,5,4,6,,3h[8:1]/5,,6,,3/5h[8:1],,1,,
{16}4h[8:1]/6,,7,,4,5,2,,4h[8:1]/6,,8,,4/5h[8:1],,2,,
{16}4/7h[8:1],,5,5,7,,8,,5/6h[8:1],,2,,3h[8:1]/5,,7,,
{16}1/2h[8:1],,8,8,3,,7,2,8,,1/7,,1/6,,,,
{16}7x/8x,,1,1,6,,3,5,4,,3,,4h[8:1]/6,,8,,
{16}5h[8:1]/7,,6,6,3,,5,3,4,,2,,1h[8:1]/7,,6,,
{16}3/5h[8:1],,2,2,4,,5,,4/6,,8,,3/4,,1,,
{16}5/4,,3,5,4,,7,7,4,,4,6,5,,8,,
{8}7>2<7[4:1],2,,,4,3,6,7,
{8}4v3<5-7[4:1],4,8,8,8>2[8:1],,C,,
{8},4-2<1[4:1],5,6,7,8<5[4:1],2,3,
{8}4,4,6,6,2v3[8:1]/7v6[8:1],,2/7,,
{8}4h[8:1],5h[8:1],6h[8:1],7p6[4:1],7,C,,,
{16}3h[8:1],,5,,6h[8:1],,4,,4h[8:1],,6,,3,3,,5h[4:1]/6,
{16},,,,7,7,,4,,,6h[8:1]/5,,4,,3h[8:1],,
{16}5,3,4,3,5,3,4,3h[16:7],,,6,,6,,6,,
{16}4x,5,3,6,4,5,3,4hx[16:3],,,,,3,5,4,,
{16},,E8,,,,,,,C,,,E4,,,,
{16}6x,4,6,5,7,4,6,5hx[16:3],,,,,6,4,5,,
{16},,B2,,,,,,,B6,,,E3,,,,
{16}7x,1,7,2,6,1,7hx[8:1],2h[8:1],,,6,,6,,6,,
{16}5x,3,6,2,7,1,6hx[4:1],2h[4:1],,,,,,,1x,,
{8}1x,,,,1x,,,1x,
{1}2xv3<6[8:5]/6xv7>2[8:5],
{24}1bx/5bx,8x/4x,3>8[8:1]x/7<4[8:1]x,,,,,,,,,,,,,2/5,,,3/4,,,1/2,,,
{8}1-5[8:1],8-6[8:1],1,8,,4V28[8:1],8v3[8:1],7,
{8}6v1[8:1],6,2>5[8:1],2,7-4[8:1],7,3,3,
{16}8,,8,1,,1,7-1[8:1],,2-4[8:1],,,,,,,,
{24}8bx/4bx,7/3,2p4[8:1]/6q4[8:1],,,,,,,,,,,,,3/5,,,4/6,,,5/7,,,
{8}8-4[8:1],5-2[8:1],8,5q1[8:1],,,,{16}2,2,
{16}5,,,,,,6,6,3-5[8:1],,,,C,,,,
{24}4h[8:1]/6,,,7,,,4x,3x,2x,1x,8x,7x,5x>2>5[4:1],,,,,,,,,,,,
{8}1h[4:1],6,7h[4:1],4,3h[4:1],5,6h[4:1],1,
{8}2-6[8:1]*pp4[8:1],,A2,,,4,3,2,
{8}1,8,7,6,3/5,3/5,1/7,1/7,
{8}4v7[8:1]/6-2[8:1],,4v1<8[29#40:1]/6,,C,,,,
{8}C,,,,4/5,6,4/5,3,
{16}3/5h[8:1],,2,,5,4,6,,3h[8:1]/5,,6,,3/5h[8:1],,1,,
{16}4h[8:1]/6,,7,,4,5,2,,4h[8:1]/6,,8,,4/5h[8:1],,2,,
{16}4/7h[8:1],,5,,7/3,,8,,5/6h[8:1],,2,,3h[8:1]/5,,7,,
{16}1/2h[8:1],,7,,2h[8:1]/8h[8:1],,,,5x/6x,,2,,3/5,,2,,
{16}1/7,,6,,3/5,,3,5,4,,5,,4h[8:1]/6,,8,,
{16}5h[8:1]/7,,6,6,3,,5,3,4,,2,,1h[8:1]/7,,6,,
{16}3/5h[8:1],,2,2,4,,5,,4/6,,8,,3/4,,1,,
{8}3/5,2,1/7,6,3x/5x<4[4:14],,,,
{2}E6,E7,
{2}E8,E1,
{2}E2,E3,
{4}E4,,5-8[1:2],4,
{4}4,4,4,4,
{4}4,4,4,4,
{16}4,,8,4,7w3b[8:1],3,6,2,7x,,,,1/5,,3,,
{16}4/8,,6,4,5,3,8,8,1,6,3,7,4V63-6[3:1],1V72-7[3:1],3,8,
{16},,,,,,,,4,6,1,,5,3,8,,
{16}7q1[6:1],2,8,3,,,,,4,,4,1,,1,3-1b[8:1],,
{16}8-6b[8:1],,,,,,,,2b,5,3,4,1,,1,7b,
{16}3,6,4,8,3,,3,5b,3,7,2,8p2b[16:4],4p6b[16:3],1,5,,
{16},,,,,,5,3,7h[8:7],,,,Ch[8:5],,,,
{8},,,,4-2[8:1]/6,3,4/8-5[8:1],7,
{8}2-6[8:1]/8,1,7-4[8:1]/2,8,3-1[8:1]/7,2,3/5<8[8:1],6,
{8}5/2-5[8:1],1,7-3[8:1]/2,6,1-4[8:1]/7,2,1/5-2[8:1],6,
{8}3-6[8:1]/5,4,3/8-5[8:1],7,8/2>8[4:1],1,2,,
{8}4h[4:1],,5x>3[8:1]*<7[8:1],,5x,,1V35[4:1],,
{8}6b,7b,8b,8b-6[8:1]*-5[8:1],,8-2[8:1]*-3[8:1],,8,
{16},,,,,,7,7,5h,,,,,,4,4,
{4}6-4[8:1],C,,,
&inote_6=(145)
(580)
{1}C,
(145)
{24}1x/8x,7x/2x,3xv2-4[6:1]/6xv7-5[6:1],,,,,,,,,,,,,3/6,,,3/5,,,2/4h[8:1],,,
{16}1,4,1,4,1,5,1>4[8:1],,,,5,,
{8}5-1[8:1],5,3-8[8:1],3,6-2[8:1],6,5-1[8:1],5,
{16}E8/B8,,E7/D7,,4,,4,6,,6,5-3[8:1],,7x-5[8:1],,,,,,,,
{24}2x/7x,3x/6x,5xv6-8[6:1]/4xv3-1[6:1],,,,,,,,,,,,,2/7,,,2/8,,,1h[8:1]/3,,,
{16}3,1,3,8,3,8,3<6[8:1],,,,,,,,7,7,
{16}5h,,,,,,4,4,6-4[8:1],,,,C,,,,
{16}3/5h[8:1],,2,,5,4,6,,3h[8:1]/5,,6,,3/5h[8:1],,1,,
{16}4h[8:1]/6,,7,,4,5,2,,4h[8:1]/6,,8,,4/5h[8:1],,2,,
{16}4/7h[8:1],,5,5,7,,8,,5/6h[8:1],,2,,3h[8:1]/5,,7,,
{16}1/2h[8:1],,8,8,3,,7,2,8,,1/7,,1/6,,,,
{16}7x/8x,,1,1,6,,3,5,4,,3,,4h[8:1]/6,,8,,
{16}5h[8:1]/7,,6,6,3,,5,3,4,,2,,1h[8:1]/7,,6,,
{16}3/5h[8:1],,2,2,4,,5,,4/6,,8,,3/4,,1,,
{16}5/4,,3,5,4,,7,7,4,,4,6,5,,8,,
{8}7>2[8:1],2<7[8:1],,,4,3,6,7,
{8}4v3<5-7[4:1],4,8,8,8>2[8:1],,C,,
{8},4-2<1[4:1],5,6,7,8<5[4:1],2,3,
{8}4,4,6,6,2v3[8:1]/7v6[8:1],,2/7,,
{8}4h[8:1],5h[8:1],6h[8:1],7p6[4:1],7,C,,,
{16}3h[8:1],,5,,6h[8:1],,4,,4h[8:1],,6,,3,3,,5h[4:1]/6,
{16},,,,7,7,,4,,,6h[8:1],,4,,3h[8:1],,
{16}5,3,4,3,5,3,4,3h[16:7],,,6,,6,,6,,
{16}4x,5,3,6,4,5,3,4hx[16:3],,,,,3,5,4,,
{16},,E8,,,,,,,C,,,E4,,,,
{16}6x,4,6,5,7,4,6,5hx[16:3],,,,,6,4,5,,
{16},,B2,,,,,,,B6,,,E3,,,,
{16}7x,1,7,2,6,1,7hx[8:1],2h[8:1],,,6,,6,,6,,
{16}5x,3,6,2,7,1,6hx[4:1],2h[4:1],,,,,,,1x,,
{8}1x,,,,1x,,,1x,
{1}2xv3<6[8:5]/6xv7>2[8:5],
{24}1bx/5bx,8x/4x,3>8[8:1]x/7<4[8:1]x,,,,,,,,,,,,,2/5,,,3/4,,,2/3,,,
{8}1-5[8:1],8-6[8:1],1,8,,4V28[8:1],8v3[8:1],7,
{8}6v1[8:1],6,2>5[8:1],2,7-4[8:1],7,3,3,
{16}8,,8,1,,1,7-1[8:1],,2-4[8:1],,,,,,,,
{24}8bx/4bx,7/3,2p4[8:1]/6q4[8:1],,,,,,,,,,,,,3/5,,,4/6,,,5/7,,,
{8}8-4[8:1],5-2[8:1],8,5q1[8:1],,,,{16}2,2,
{16}5,,,,,,6,6,3-5[8:1],,,,C,,,,
{24}4h[8:1]/6,,,7,,,4x,3x,2x,1x,8x,7x,5x>2>5[4:1],,,,,,,,,,,,
{8}1h[4:1],6,7h[4:1],4,3h[4:1],5,6h[4:1],1,
{8}2-6[8:1]*pp4[8:1],,A2,,,4,3,2,
{8}1,8,7,6,3/5,3/5,1/7,1/7,
{8}4v2[8:1]/6-2[8:1],,4v1<8[29#40:1]/6,,C,,,,
{8}C,,,,4/5,6,4/5,3,
{16}3/5h[8:1],,2,,5,4,6,,3h[8:1]/5,,6,,3/5h[8:1],,1,,
{16}4h[8:1]/6,,7,,4,5,2,,4h[8:1]/6,,8,,4/5h[8:1],,2,,
{16}4/7h[8:1],,5,,7/3,,8,,5/6h[8:1],,2,,3h[8:1]/5,,7,,
{16}1/2h[8:1],,7,,3/5,,,,5x/6x,,2,,3/5,,2,,
{16}1/7,,6,,3/5,,3,5,4,,5,,4h[8:1]/6,,8,,
{16}5h[8:1]/7,,6,6,3,,5,3,4,,2,,1h[8:1]/7,,6,,
{16}3/5h[8:1],,2,2,4,,5,,4/6,,8,,3/4,,1,,
{8}3/5,2,1/7,6,3x/5x<4[4:14],,,,
{2}E6,E7,
{2}E8,E1,
{2}E2,E3,
{4}E4,,5-8[1:2],4,
{4}4,4,4,4,
{4}4,4,4,4,
{16}4,,8,4,7w3b[8:1],3,6,2,7x,,,,1/5,,3,,
{16}4/8,,6,4,5,3,8,8,1,6,3,7,4V63-6[3:1],1V72-7[3:1],3,8,
{16},,,,,,,,4,6,1,,5,3,8,,
{16}7q1[6:1],2,8,3,,,,,4,,4,1,,1,3-1b[8:1],,
{16}8-6b[8:1],,,,,,,,2b,5,3,4,1h,,1h,7b,
{16}3,6,4,8,3h,,3h,5b,3,7,2,8p2b[16:5],4p6b[4:1],1,5,,
{16},,,,,,5,3,7h[8:7],,,,Ch[8:5],,,,
{8},,,,4-2[8:1]/6,3,4/8-5[8:1],7,
{8}2-6[8:1]/8,1,7-4[8:1]/2,8,3-1[8:1]/7,2,3/5<8[8:1],6,
{8}5/2-5[8:1],1,7-3[8:1]/2,6,1-4[8:1]/7,2,1/5-2[8:1],6,
{8}3-6[8:1]/5,4,3/8-5[8:1],7,8/2>8[4:1],1,2,,
{8}4h[4:1],,5x>3[8:1]*<7[8:1],,5x,,1V35[4:1],,
{8}6b,7b,8b,8b-6[8:1]*-5[8:1],,8-2[8:1]*-3[8:1],,8,
{16},,,,,,7,7,5h,,,,,,4,4,
{4}6-4[8:1],C,,,
