&title=[Re]Creation
&artist=LucaProject
&first=-0.87
&des=Lingenmel VS Kuilin Thorcne
&des_5=Lingenmel VS Kuilin Thorcne
&lv_5=14+
&inote_5=(182){4},,,,,,,,{2}3q5[2:3],
E1,
E7,E8,
6p4[2:3],E1,
E3,E2,
2pp7[2:3],8,
7,6,
7qq2[2:3],1,
2,3,
{1}5b<8[2:1]/4b>1[2:1],
{2}2>6[2:1],6<2[2:1],
{1}2q5[4:3],
{4},7<3[2:1],2,1,
{1}8q3[2:1],
{2}7<3[2:1],3>7[2:1],
{1}7p5[2:1],
{8}3,3,3,{16}3,4,{8}2,2,{16}1,8,1,8,
{4}2b/7b,{8}2>6[2:1],1,8,7,6,7h[8:3],
,,3,2,1>4[4:1],2,{16}1/5,6,7,8,
{4}1x-3[8:1],{8}1/8,7,6-4[8:1],4-7[8:1],3,2,
1-5[8:1],2,1/8,7,{16}6,5,{8}7,{16}4/6,3,2,1,
{8}8>5[8:5],7,6,5,4,5,6,7V15[4:1],
,,2,3,4h[4:1],5,{16}6,7,8,1,
{4}2<6[16:3],{8}4,3,2,1,2,3h[4:1],
{16},,2,1,8,7,6,5,2,3,4,5,8,7,6,5,
E2,E6,E4,E8,{8}3bx-8[8:1],8xV25[4:1],7,6,7,8,
8-4[8:1],2,8-6[8:1],2,8,2,{16}7,4,6,5,
{4}6>2[8:3],{8}6/8,8,8,8,7,7h[4:1],
{16},,4,3,2,1,8,7,6,5,4,3,6,4,6,4,
{8}6b-1[8:1],6,3-7[8:1],3,5v2[8:1],5,4v7[8:1],4,
6b-2[8:1],6,3-1[8:1],3,5,5,4,4,
3/7,7/3,6/2,2/6,1/5,1/5,4/8,4/8,
{16}7,3,7,3,8,4,8,4,8,1,2,3,8x,7,6,5,
{32}1b,2x,3x,4x,,,,,,,,,7b/1,6x,5x,4x,,,,,,,,,1b/7,2x,3x,4x,,,,,{16}6,
5,6,7,,,3,4,3,2,,,6,4,5,3,
{8}2b/7,8-4[8:1],{16},,8b/3,C,{4}2-6[8:1],{16}2b/7,C,{8}8,
{16}3,4,2,5,,,6,5,7,4,,,3,4,2,5,
{1}4b/2b>1[8:13],
{32}B8,B7,{16}B6,,,,,,,,,,,{4}7,
{8}7b<8[4:5],,,4,,,{4}3,
{32}E4,B4,{16}E5,,,,,6x,5x,{4}4x,{16}E5,E4,E3,E2,
{32}1x/8b,7x,6x,5x,{8}4x,{32},,,,7x/8b,1x,2x,3x,{4}4x,{32}2x/1b,8x,7x,6x,{8}5x,
{16}1,1,8,2,,,6,6,7,5,,,3,4,2,5,
{32}1/6b,2x,3x,4x,{8}8b,{32},,,,8/3b,7x,6x,5x,{4}1b,{32}1/6b,2x,3x,4x,{8}8b,
{16}E1,B8,B7,E7,,,E5,B4,B3,E3,,,1-6[8:1]/5-2[8:1],2/6,3/7,4/8,
{4}5b/1b,{8}5/3,5,4/6,4,{16}3,5,2,6,
{8}7b/1b,6,3/5,2,{16}3,5,3,5,2,6,3,5,
{8}6b/2b,6/2,1/5,5/1,8/4,4/8,7/3,7/3,
{16}7/3h,8/4h,1/5h,2/6h,3/7h,4/8h,5/1h,6/2h,E2,E1,E8,E7,E6,E5,E4,E3,
{1}4b/E2f,
,7h[1:1],
4h[1:1],
6<4[2:3],
{4}E1,E8,E7,E6,
{8}5h[8:7],{16},,,,,,,,,,,,4,3,
{2}2h[2:1],6h[2:1],
{1}3b,
7h[1:1],
4h[1:1],
{2}8h[2:1],7h[2:1],
{1}6h[1:1],
{2}2h[2:1],3h[2:1],
{1}4>5[2:3],
4h[1:1],
{8}7b-5[8:1],,,1-4[8:1],,,{4}8-6[8:1],
{8},2-5[8:1],,,{4}7,6,
{8}2-4[8:1],,,8-5[8:1],,,{4}1-3[8:1],
{8},7-4[8:1],,,{4}2,3,
6,{8}2,2-4[8:1],,8,{4}8-5[8:1],
{8}3,3-5[8:1],,7,{4}7-4[8:1]*-2[8:1],7,
{8}3>3[4:3],{16},,,,,,,,,,,,E8/D8,E1/D1,
{2}E2/D2,{8}E1,E8,E7,E6,
{1}3b>8p6[2:3],
,7-5-8[4:3],
2-5-1[4:3],
{2}7b,C/E4,
C/E3,C/E2,
{24}C/E1,B8,,,,,,,,,,,{2}C,
{8}6x/Cf,6x,6x,{16}6,5,7,4,7,4,8,3,8,3,
{8}2b/7b,5x<8[4:1],6,5,{16}1,2,3,4,1,2,3,4,
{8}2/5,{16}2,3,,7,{8}6,{16}3,6,4,5,2,7,3,6,
{8}2/7,{16}2,4,,7,{8}5,{16}6,5,4,3,2,1,8,7,
{8}6,{16}3,2,,6,{8}7,{16}4,5,3,6,2,7,1,8,
{8}7/2,{16}3,3,4,2,{8}5,{16}3,6,4,5,3,6,2>6[4:1],5,
{8}1,{16}6/2,7,8,1,2,3,4,5,6,7,8,1,2,3,
{8}4,{16}1,2,,8,{8}7,{16}4,5,6,7,8,5,6,7,
8,1,2,3,{8}4,{16}1x,2,3,4,{8}5-1[8:1],6/4,5,
{16}7x,7x,7x,7x,{8}5/3-7[8:1],2,3/5,2,{16}5/1,6/2,7/3,8/4,
{8}5/1,{16}3,5/2,,6,{8}4/7,{16}4,5,2,6,3,7,2,6,
{8}5/2,{16}4,3/5,,5,{8}6/4,{16}1,2,3,4,5/8,7,6,5,
{8}4/1,{16}3,4/2,,7,{8}8/6,{16}2,6,1,5,2,6,3,7,
{32}2b/8x,3x,{16}4x,{32},,7b/1,6x,{8}5x,{32}3b/8,4x,{16}5x,2,7,3,6,2,5,3,6,
{32}2b/7,3x,{16}4x,{32},,7b/1,6x,{8}5x,{32}3b/8,4x,{16}5x,2,6,3,7,1,6,2,7,
{24}2,3,4,7,6,5,1,2,3,8,7,6,{32}1,2,3,4,5,6,7,8,1,2,3,4,5,6,7,8,
{8}1b/5b,7b/3b,1bx/2bx,6bx/5bx,{32}4,3,2,1,8,7,6,5,4-8[8:1],3,2,1,8,7,6,5,
{1}4/Cf,
{2},,,,,,2h,
3h,
4h,5h,
8h,7h,
6h,{4}5h,{16}4b,4b,4b,4b,
{1}Cf,
E
