&title=ANDORXOR
&artist=Sobrem
&first=1.62
&des=小white君
&lv_6=14+
&inote_6=(148)
{4}2/5,
{16}3,,,4,3,,,,2/5,,,6,5,,,,7/4,,,,2-5-7-4[2:1],,
{24}7x,8x,1x,2x,,,,,,8hx[8:3],,,,,,,,,,,,
{16}1-4<7[2:1]/7,,,,,,,,8>3-7[2:1],,,,,,,,5-2<7[2:1],,,,,,,,4hx[2:1],,,,,,,,,,,,
{16}1/7,,,2,2/6,,,,5/3,,,4,4,,
{24},5,6,7h[4:1],,,,,,
{16}8b,,,,
{24}8,1,2,3,4,5,6/1,2,3,4,5,6,7/2,3,4,5,6,7,
{16}8/2h[4:1],,,,4h[32:1],,,,7h[4:1]/5h[16:3],,,,
{16}A6,A5,A4,A3,B6/B5/B4f/B3,,,,
{16}3,4,3,5,2,,,,2,5,3,4,2,,,,4,2,5,3,6,,,,5-1[7:1]/7-5p8[7:1],,,,7b/5b,,,,
{16}7,5,6,4,7,,,,5,6,5,7,4,,,,4,6,3,5,2-7[8:1],,,,2>5[8:1]/4q1[8:1],,,,,,,,
{16}2,1,3,8,4,,,,2,1,3,8,2,,,,2,8,1,7,8-5[8:1],,,,8/6v1[8:1],,,,1/6,,,,
{16}2,2,1,3,8,,,,7,7,8,6,1,,,,1,1,8,8,2,,3/7b,,4b/6,,2h[64:1]/5b,,1b/7hb[128:1],,,,
{16}1/2,,3,4,2,,4,3,5,,3,4,2,1,8,7,6,5,4,3,2/6,5,4,3,2,1,8,7,6/1bx,,,,
{16}8/7,,6,5,7,,5,6,4,,6,5,7,8,1,2,3,4,5,6,7/3h[64:1],4h[128:1],5,6,7,8,1,2,3/8bx,,,,
{16}1/2,,3,4,3,,6,5,6,,7,8,6hbx[128:1],5h[128:1],4h[128:1],3,2,1,8,7,6/1hbx[128:1],2h[128:1],3h[128:1],4,5,6,7,8,
{16}1/5,,3,4,2,5,2,8,1,7,3,4,2,6,8,7,4h[4:3],,,,,,,,,,,,
{4}8>8-2-4-6-8[2:1],
{2}A1/E2/E1/B1/3h[4:1],
{5}2b,7x/8,3x/5,
{20}1hx[20:1]/2h[20:1],,,
{6}4h[12:1]/6hx[12:1],
{48}2/8x,,,,
{4}1bx,7/1<1-7-5-3-1[2:1],
{2}A8/E8/E1/B8/6h[4:1],
{5}7b<4[5:1],4>1[5:1],1<6[5:1],6>3[8:1],3v6b[8:1],,
{20},
{4}8x>8-2-4-6-8[2:1],
{4}8/3x,4x,
{4}2,
{5}3/4x,5/6x,
{8}7/8x,1x/8,
{10}1/2x,
{16}8x/3,,4/7,,
{4}1x<1[4:1],
{4}1/6x,
{8}E8,E7,
{6}1b,E4,B7,
{32}8x/4,1x,2x,3x,4x,5x,6x,7x,
{8}8x/3-5<7p2[4:1],2,3,,
{24}1-7-5-3-1[4:1],1,1,1,1,1,
{32}1,,,,,,,,,8,7,6,5,4,3,2,
{16}1/4bx,3x/8x,,2x/7x,,1x/6x,,
{32}1/6,2,3,,
{16}3x/8x,,2x/7x,,1x/6x,,
{32}6,7,8/1qq1[4:1],2,3,4,5,6,7,8,1,,,,,,,,
{4}5b-1[8:1],,
{16}2,8,5,5,4,6,1,7,4,5,2,8b,1b-5q3[3:1],1b,1b,1b,1bx,,,,8-2-4-6-8[4:1],,,,,,,,
{32}1,2,3,4,5,6,7,8,1x/4bx,,
{16}5x,6x,5x,4x,3,2,3,5x/4x,6,5,4,3,4,5,6,2/7,,C,,
{24}1<1[4:1],8,2,
{16}7,,1/6,,,,5b
,,
{24}6,7,8,
{16}1,2x/8x,,3-1[16:1]/7-1[16:1],,4/6,,,,,
{24}2,3,4,5,6,7,2,3,4,5b,6,7,8,1,2,3b/7,6,5,4,3,2,
(74)
{4}1hbx[4:1]/8-2-4<8[8:1],
(148)
{8}8b,,
{32}1>2-5<1x[4:1],2,3,4,5,6,7,8,1,,,,,,,,2x,3,4,5,6,7,8,1,
{12}2bx,3b,3b,3bp7>1q5[3:1]*-7b[8:1],3b,3b,3,,,,,,
{32}1-4<1[4:1],2,3,4,5,6,7,8,1,,,,,,,,2>7v2x[4:1],3,4,5,6,7,8,1,2,,,,,,,,
{8}3xw7[8:5],3hbx[8:1],,,,,,,
{32}1b/8hx[128:1],2,3,4,5,6,7,8,1b/7hx[128:1],2,3,4,5,6,7,8,1b/6hx[128:1],2,3,4,5,6,7,8,1b/5hx[128:1],2,3,4,5,6,7,8,
{8}1bx-4<7[5:1]*-4q8[5:1],,,,
{4}1bh[8:1]/2hb[8:1],
{20}3>6[4:1],4,3,4,,
{8}2h[4:1],,,,
{4}5bh[8:1]/6hb[8:1],
{20}7<4-1-7[3:1],8,7,8,,
{8},,,
{24}A2,E3,E4,
{8}A4/6,5,3-1<3[4:1],4,,,
{32}2x,1,8,7,6,5,4,3,2/6,7,8,1,2,3,4,5,6/1,2,3,4,5,6,7,8,
{16}1,,,1/6,,2/7,,
{32}1,8,2,,,,
{12}3/4h[12:1],5h[12:1],6h[12:1],7h[12:1],
{96},
{32},8b,1,2,3,4,5,6,7,8b,1,2,3,4,5,6,7,2b,3,4,5,6,7,8,1,2b,3-6-3[8:5],4,5,6,7-2-7[8:4],8,1,
{4}2,,,
{8}2x-4-6-8-3[3:1],,,,,,
{32}7b,6,5,4,3,2,1,8,7bz3[3:1],6,5,4,3,2,1,8,7,,,,,,,,,,,,,,,,
{2}1-5[2:1],1,8-4b[2:1],8,
{16}3h[64:1]/6h[64:1],,,,6,5,6,3,4,3,6,5,7,3,4,2,8-4[8:1],,,,8w4[8:1],,,,8,,,,3,2,1,8,7h[4:4],,,,,,,
{32}B8,B7,
{4}E7,,1,2,3h[2:1],,4,5,6h[2:1],,7,8,1h[2:1],,8,7,
{8}6h[2:1],5,4,3,2,1,8,7,4/6,5,4,3,2/8,,,7,6-1[4:1]/5,,,,
{16}4,3,2,8,7,6,5,3,2-6b[8:1],,,,,,,,
{16}1b/7b,,,,3,4,3,5,2,8,1,7,5,6,4,5,
{24}3,4,3,4,3,4,3,,,
{16}2,,1/7,,3/5,,2>5[8:1]/1,,,,2/6,,,,7/8,,1/8,,
{24}2,1,2,1,2,1,2,,,
{16}8,,1/7,,6,5,7,,7,,4/8,,3/1,,2/8-3[8:1],,,,6/8,,,,
{16}2x,1,3,7x,8,6,3x,4,2,6x,5,7,2x,1,4,7x,8,5,2x,4,8,7x,5,1,3,4,2,1,
{20}3b,8,3,8,3,8,3,8,3,8,3,8,3,8,3,8,3,8,3,8,2b,1,2,1,2,1,2,1,2,1,2,1,2,1,2,1,2-6<7-3>2b[2:1],1,2,1,2,,,,,,,,,,
{4}8<5[8:1],4>1b[8:1],7<6-4[8:1],3b>8[8:1],6-4>3[8:1]*-4>3[8:1],2b<1<8<7b[8:1]*-5[8:1],
{8},,
{128}4v1[8:1],6-3>2b[8:1],,,,,,,,,,,,,,,,,,,,,,,,,,,,,,,
{8},,7<6-4[8:1]/8v3[8:1],,7b-2[8:1]/8,,7-4b[8:1]/5bp1[8:1],,E5f,,7/8-5[8:1],,2/8,,
{16}3,4,2,1,3/8,,,,6,5,7,8,1v4b[8:1]/6,,,,1/3<7[4:1],,,,3/7<6>3-1b[4:1],,,,8w4[8:1],,,,,,,,
{20}6b,2b,7b,1b,8b,B7/B8/B1/B6/Cf,,,,,
{8}4/5,3/6,4z8[8:1]/5z1[8:1],,,,
{16}2bx/7bx,3/6,4/5,,,,,,2b,8,,2b,8h[8:1],,,,
{32}7b,6,5,4,3,2,1,8,7b/B3,6,5,4,3,2,1,8,7/2b,3,4,5,6,7,8,1,2b/B7,3,4,5,6,7,8,1,2b,,
{16}3x/5,,4x/6,,7x/5,,
{32}1,8,
{12}2,3/4h[12:1],5h[12:1],6h[12:1],7h[12:1],8,
{32}1b,2,3,4,5,6,7,8,1b/B8,2,3,4,5,6,7,8,1/6b,5,4,3,2,1,8,7,6b/E2,5,4,3,2,1,8,7,6w2[4:1],,,,6hx[8:1],,,,
{8},,,
{16}2x-5-7-4-2[2:1]*-6b[8:1],2x,2x,2x,2x,,,,,,,,,,
{32}7,6,5,4,3,2,1,8,7bz3b[4:1]/2bs6b[4:1],3,4,5,6,7,8,1,7/2,,,,,,,,,,,,,,,,
{32}7,8,1,2,3,4,5,6,7/2,1,8,7,6,5,4,3,
{16}2/7,,,,1/7,,3,4,2,,2/1,,2/1,,7/8,,6b/5b,,1bh[128:1]/2b,,3b[32:1]/4b>5[4:1],,7bh[16:1]/8b,,,,,,
{32}4,3,2,1,8,7,6,5<6-1>2-4v7[1:4],4/8b>1v6<7-4<5b[1:4],
