&title=DIE IN
&artist=TAK × Sobrem
&first=-0.254
&des=テイル ◆ スター
&lv_5=14+
&inote_4=
&inote_5=(222)
{1},
{8}3h[2:1]/4h[1:1],,,,,,,,
{12}2,,2,,1,,3,,3,,5,,
{24}4h[2:1]/6h[2:1],,,,,,,,,,,,,,,,,3/7,,,,3/7,,,,
{12}2,,8,,1,,6,,4,,5,,
{12}2,,4,,3,,6xh[24:11],,,,,{24},
{48}3x,4bxh[2:1],,,,,,,,,,,,,,,,,,,,,,6x,7bxh[2:1],,,,,,,,,,,,,,,,,,,,,,,,
{48}2x,1bhx[48:23],{24},{12},,,,,5,,,5,,,
{4}5/E7,5/E4,5/E8,5/E3,
{4}5/E1,5/E2,5h[8:1]/1h[8:1],5h[8:1]/1h[8:1],
{1}1bV35-7pp4[8:9],
{2},5V71-3pp6[8:9],
{1},
{1}4V28-6qq1[8:9],
{2},8^5pp4[8:7],
{8},,,,2,,2,,
{32}7hx[8:3],E3,B3,B4,,,,,{8},5h[4:1],,4h[4:1],,2h[4:1],
{8},8-4[16:3],8,,3h[8:3],,,4h[4:1],
{8},5h[4:1],,6h[4:1],,2-5[16:3],2,,
{8}7h[8:3],,,5h[4:1],,4h[4:1],,2h[4:1],
{8},7-3[16:3],7,,4h[8:3],,,8h[4:1],
{8},3,2b/1b,,4b/5b,,7b/8b,,
{8}2/4,3,3,5/6,7,7,1V38[4:1]/8,7,
{8}6,5,4h[4:1],,1,2,3,7/4,
{8}6,5,4V61[4:1]/1,1,2,3,4h[4:1],,
{8}8-4[16:3],,4,3,2^5[4:1],,5^8[4:1],,
{8}8^3[4:1],,5,,6V84[32:9],,6/5,4,
{8}3h[4:1],,5h[4:1],,4,6,3,7,
{8}2/8,1,1,3/4,2,2,4V26[4:1]/5,6,
{8}7,8,1h[4:1],,4,3,2,6/1,
{8}7,8,1V74[4:1]/4,4,3,2,1h[4:1],,
{8}5-1[16:3],,1,2,3^8[4:1],,8^5[4:1],,
{8}5^2[4:1],,8,,7V51[32:9],,7/8,1,
{8}2h[4:1],,8h[4:1],,1,7,2,6,
{4}3bqq5[1:1]/5b,,,A6/E7/B6,
{4},,8qq4[1:1]/4,,
{4},A3/B3/E3,,,
{4}2^7pp3[1:1]/7,,,D4/E4,
{4}E5,D6/E6,7h[4:1],8h[4:1],
{8}1h[4:1],,2xV48[16:5]*V47[16:5],,,,,,
{8}6V47-1[4:3]/1,,,1,1,,B3,,
{8}2h[8:1],,2h[8:1]/1h[8:1],,3V52-6[4:3]/4,,,6,
{8}6,,E1,,7h[8:1],,1h[8:1]/8h[8:1],,
{8}2V83-5[16:7]/4,,,7,7,,6-8[8:1],,
{8}4-2[8:1],,5-1b[8:1],,1bV74[16:5]*V36[16:5],,,,
{4},2bhx[8:1]/8hbx[8:1],3hb[8:1]/7hb[8:1],4hb[8:1]/6hb[8:1],
{8}5<4[4:3],,,4,,3,,2x,
{8},1,1h[4:1],,4>5b[4:3],,,1,
{8},2x,,3b,,4b,4b,5b,
{16}3b,4,3,4,3,4,2x,6,2,6,2,6,1x,2,3,4,
{16}8x/5,7,6,5,1x/4,2,3,4,6b,5,6,5,6,5,7x,4,
{16}7,4,7,4,8,7,6,5,4/8x,1,2,3,8/4x,7,6,5,
{16}2bx,4,2,4,2,4,3,5,3,5,3,5,4x,3,2,1,
{16}8/5x,6,7,8,4/1x,3,2,1,6b,8,6,8,6,8,5x,1,
{16}5,1,5,1,4bx,5,6,7,8/4xb,1,2,3,4bx/8xb,,,,
{16}1b,5,2,6,3,7,4,8,3,7,2,6,1x,2,3,4,
{16}5/8x,1,2,3,4/7x,8,1,2,6b,3,7,4,6,3,5,2,
{16}6,3,7,4,8x,7,6,5,4/1x,8,7,6,5/2x,1,8,7,
{16}3b,6,4,5,4,6,3,7,2,8,3,6,4x,3,2,1,
{16}8/5x,4,3,2,1/6x,5,4,3,7b,2,8,1,6,3,5,4,
{16}6,5,7,5,8bx/4bx,3,2,1,8bx/4bx,7,6,5,8bx/4bx,7/3,6/2,5/1,
{1}8bxv3V58[2:5]/4bxv7V14[2:5],
{1},
{1},
{8}3h[8:1],5h[8:1],4h[8:1],6h[8:1],E3,,6h[8:1],4h[8:1],
{8}5h[8:1],3h[8:1],E7,,1xh[2:1],,B6/E6,,
{8}B3/E4,,7hx[2:1],,B6/E6,,B3/E4,,
{8}2bpp5<1[1:1],,,,,,E8,,
{8}E7,,E6,,5bqq2<6b[1:1],,,,
{8},,E2,,E3,,E4,,
{8}1hx[8:1],7h[8:1],1h[8:1],7h[8:1],E3,,2h[8:1],7h[8:1],
{8}2h[8:1],7h[8:1],E3,,3h[8:1],7h[8:1],3h[8:1],7h[8:1],
{8}E3,,4h[8:1],7h[8:1],4h[8:1],7h[8:1],E3,,
{1}5V38-6qq3[4:5]/6,
{2},7V52-8qq4[4:5],
{1},
{1}3V16-4qq8[4:5],
{2},6V41V73[4:3],
{4},,1h[4:1],8hb[8:1],
{8}2/5,3,4,3,2/8,1,1bs5[4:1],
{8}8b,,,,,7/4,6,5,6,
{8}7/1,8,8b,1bh[24:5],{12}E8,E7,E6,E2,E3,E4,
{8}6x,3,4,3,1/8,7h[4:1],2xbV48b[4:1],4xb-7b[8:1],
{8},,,,6/1,7,5,7,
{8}3-7V14[16:7],2/4,3b,,,,,,
{16}2b/1b,,3,4,3,,2h[4:1]/1,,8,,8,,7b/4,,6,5,
{16}6,,7h[4:1]/8,,1,,1,,2b/5,,3,4,2,,1h[4:1]/8,,
{16}6,,6,,7b/4,,6,5,7,,8h[4:1]/1,,3,,3,,
{16}1x,2,3,4,2x,3,4,5,8x,7,6,5,7x,6,5,4,
{24}1bx,2,3,4,5,6,7,8,1,2,3,4,5,6,7,8,1,2,3,4,5,6,7,8,
{24}1,2,3,4,5,6,{4}7/8bx-4b[8:1],,2^5[8:1],
{24}1b,8,7,6-3[8:1],,,{8},6/3,2,2,1-5[8:1],,
{8}6-1[8:1]/1,,4-8[8:1]/6,,7qq4[2:1]/4,,1,2,
{8}3^8b[8:1],,3^6[8:1]*q7[8:1],,3x,,1,1,
{8}1^6[8:1]/8,,1^4[8:1]/2,,1-6[8:1]/8,,1-4[8:1]/2,,
{8}1-5[8:1]/5x,6,7h[4:1],,{16}3,,3,4,2,,1/5,,
{16}6,,6/5,,7,4,6,5,7,4,6,5,7^4[8:1],,,,
{24}4b,3,2,1-5[8:1],,,{8},1/5,7,7,8-4[8:1],,
{8}3-8[8:1]/8,,5-1[8:1]/3,,2pp5[2:1]/5,,8,7,
{8}6^1b[8:1],,6^3[8:1]*p2[8:1],,6x,,8,8,
{16}8-6b[8:1],,5,,8-2[8:1],,3,,8-5b[8:1],,5,,8-3[8:1],,3,,
{16}8^5b[8:1],,5,,8^3-7[16:5],,3,,8b,,,,4,,4,,
{16}5/6,,5/6,,3,4,2,5,3,4,2,5,3b,,,,
{8}1-3[8:1]/8,,8,7,6V42[4:1],,2V86[4:1],,
{8}6V48[4:1],,4,,2-6[8:1],,2,8,
{8}8-4[8:1],,8/4,3,2-6[8:1]*-5[8:1],1,2,,
{24}7x/4x,3x,2x,1xh[8:1],,,8x^3b[8:1],7x,6x,5xh[8:1],,,8bx,,,,,,2x/5x,6x,7x,8xh[8:1],,,
{24}1x^6b[8:1],2x,3x,4xh[8:1],,,1bx,,,,,,{16}2x/5x,,3,4,3,,2/5,,
{16}3/6,,7/4,,6,6,4,5,3,4,2,5,1-5b[8:1],6,8,7,
{4}1bV72[16:5]/Cf,,,
{4}6-3-5[16:5]/3x,,,
{4}2-7-1[16:5]/7x,,,
{4}4V63[16:5]/5x,,,
{16}1,2,3V14[16:5],,,,,,,,,,6V85-1-4-2<5b[8:9],,,,
{1},
{32},,,,,,,,A4f,B3/B4f/B5,B2/Cf/B6,B1/B8f/B7/E2/E7,A1/D1/A8f/D8/A7,,,,,,,,,,,,,,,,,,
(230)
{16}2xb/1bx,,2bx/1xb,,3xb/4bx,,3bx/4bx,,2bx,5xb,3xb,4xb,2xb,,5xb/6xb,,
{16}4xb/7xb,,4xb/7xb,,2xb/1xb,,2bx/1xb,,3bx/5bx,,2xb,1xb,3xb,8xb,4xb,7xb,
{16}5xb,,6xb/8bx,,2xb/1xb,3bx/8xb,4xb/7xb,,8xb/7xb,1xb/6xb,2xb/5xb,,3xb/4xb,,3bx/4bx,,
{16}5xb/6xb,,6xb/5xb,,7bx/8bx,,1bx,8xb,2xb,7xb,1bx,,3bx/6xb,,3bx/6bx,,
{24}2xb,3xb,4xb,5bx,,,8bx,7xb,6xb,5bx/1xb,2bx,3xb,4bx,,,6bx,,,6bx,,,5bx/7bx,,,
{8}7bx/8bx,7bx/8bx,{24}8bx/1bx,7bx/2bx,6xb/3xb,5xb/4xb-2^7-5qq1[4:5],,,,
(222)
{4},,,E8,
{4}E7,E6,5^7-1^4pp8b[4:5],,
{4},E2,E3,E4,
{4}5>7[4:3],,6h[2:1],,
{4},4h[2:1]/5h[2:1],,,
{8}3h[2:1]/4h[2:1],,,,,,2,,
{8}1,,8,,
(201)
{8}7pp4[2:1],,,,,,,,
(222)
{8}E4,E6,
(206)
{8}E3,E7,
(180)
{8}E1,,
(188)
{8}8b/4b,,
(178)
{8}2b/6b,,
(185)
{8}5b/4bh[8:3],,
(160)
{24}3,2,1,8,7,6,5,4,3,2,1,8,
(190)
{16}3b,7,3,7,3,7,3,7,3,7,3,7,2b,6,2,6,2,6,2,6,2,6,2,6,
(210)
{16}1b,5,1,5,1,5,1,5,1,5,1,5,
(208)
{16}8b,4,8,4,8,4,8,4,8,4,8,4,8,4,8,4,
(206)
{24}7bx,3,7,3,7,3,7,3,7,3,7,3,7,3,7,3,7,3,7,3,7,3,7,3,
{24}6bx,7,8,1,2,3,4/8x,5,6,7,8,1,
(188)
{24}2/6x,5,4,3,2,1,8/4x,7,6,5,4,3,{32}8bx,1,2,3,4,5,6,7,8x,1,2,3,4,5,6,7,
{32}8x,1,2,3,4,5,6,7,8x,1,2,3,4,5,6,7,
(160)
{1}8bqq6qq4qq2qq8b[8:7],
&inote_6=
