&title=Mystic Light Quest
&artist=Monster siren
&first=0.25
&des=Re:MirrorKnight
&lv_5=13+
&inote_5=(160){4},{1},,{4},,,{1}Cfh[1:1],
1x-4<5-8>1<5[2:3]*-4<5-8>1>5[2:3],
,{8}5/6h[8:1],
5,4/5h[8:1],4,5/4h[8:1],5,4/3h[8:1],4,
{12}5x,6x,7x,8x,{24},{8}1x,{4}2-6[12:1],C,
1/8<1[4:3],{2},{4}1qq3>6[4:3],
{2},B8/E8/B7,
{4}8/1>8[4:3],{2},{4}8pp6<3[4:3],
{2},B1/E2/B2,
{1}8<1[4:3]*q5[16:5],
{2}4h[4:3],{8}E4,E5,{4}E6,
{1}6>1[4:3]*pp7[2:1],
{2}Cfh[2:1],B8/E1/B1,
{16}2h[8:1],{8},{16}4,3,4,{8},{16}3h[8:1],{8},{16}5,4,5,{8},{16}4h[8:1],
{8},{16}6,5,6,{8},{4}7p3[8:1],7x/8,
{16}7h[8:1],{8},{16}5,6,5,{8},{16}6h[8:1],{8},{16}4,5,4,{8},{16}5h[8:1],
{8},{16}3,4,3,{8},{4}2q6[8:1],2x/1,
3h[16:3]/1-6[8:1],1x,7h[16:3]/1p5[8:1],1x,
3h[16:3]/1p4[8:1],1x,1-5[8:1]*z5[8:1],1x,
6h[16:3]/8-3[8:1],8x,2h[16:3]/8q4[8:1],8x,
6h[16:3]/8q5[8:1],8x,Cfh[4:1],B8/B1/B2,
{2}8<3[1:1],E7/B7/B6,
2h[4:3],{4}6,8,
{2}1>4[4:3],E3/B2/B3,
{4}5h[8:1],{8}5,3,6,6,{4}2,
{8}1/8h[8:11],1,3,3,2,2,5,5,
3,3,6,6,{4}4v7[8:1],4,
{8}8/1h[8:7],8,5,5,7,7,4,4,
{4}3/E6/B6/B5,6/B3/B4/E4,{8}B7/B6/B2/B3/E7/E3,{4},{8}2h[8:3],
{32}B7,B6,{16}B5,{4},{8}8h[8:3],{32}B2,B3,{16}B4,{4},{8},7h[8:1],
6h[8:1],5h[8:1],4h[8:1],3-5[0.1875##0.1875],{4},{8}7h[8:3],
{32}B2,B3,{16}B4,{4},{8}1h[8:3],{32}B6,B5,{16}B4,{4},{8}2h[8:1],
3h[8:1],4h[8:1],5h[8:1],6-4[0.1875##0.1875],{4},{8},5/3h[8:1],
B4/B3/B5,{4},{8}4/6h[8:1],B6/B5/B4,{4},{8}2/3h[8:1],
4h[8:1],5h[8:1],6h[8:1],7<4[8:1]*-4[8:1],{2},{1}8q5[2:1]/1p4b[2:1],
{4}6/B4/B3/E4,3/B6/B5/E6,Cfh[4:1],B7/B6/B2/B3/E7/E3,
{8}6<8[8:1]/1>3[8:1],6x,{4}6/1,{8}8<6[8:1]/3>1[8:1],3x,{4}8/3,
{8}6<8[8:1]/1>3[8:1],6x,{4}6/1,{8}8<6[8:1]/3>1[8:1],3x,{4}8/3,
7v2[4:1],2-7[4:1],7v2[4:1],2<7pp2[4:3],
,{8},E6,E5,E4,{4}3>6[4:1],
6<3[4:1],3>6[4:1],6<3[4:1],3<6[4:1],
6>3[4:1],3<6[4:1],6>3[4:1],B5/E5/B4,
{8}1h[4:1],2,{4}3,3/7,4/6,
1/7-3[8:1],7b/1-5[8:1],1b/7,6b/3>7[4:1],
7p2[4:1],2<6[4:1],6>3[4:1],3<6[4:1],
6>3[4:1],3<6[4:1],6p8[4:1],D7/A7/B7/E7,
6h[4:1],5h[4:1],4h[4:1],3h[4:1],
{8}2h[4:3],{4},{8}4,3,1,{4}8<5[4:1],
5<8[4:1],8<5[4:1],5<8[4:1],8q5[4:1],
5<8[4:1],8>4[4:1],4<8[4:1],C,
2bxh[4:1],B3/B2/E3/A3/D3f,7bxh[4:1],E7/B7/A6/B6/D7f,
A5/A4/B5/B4/D5/E5f,B6/B7/B2/B3/Cf/E7/E3,{2}A8/D1/B8/B1/A1/E1f,
{8}2h[4:1]/7-4[8:1],6,{4}7,{8}7h[4:1]/2-5[8:1],3,{4}2,
2-6[8:1]/1-5[8:1],1/2,7-3[8:1]/8-4[8:1],8/7,
{8}3h[4:1]/6-1[8:1],5,{4}6,{8}6h[4:1]/3-8[8:1],4,{4}3,
6<3[4:1],3>6[4:1],6>3[8:1],B5/E5/B4,
{8}7h[8:1]/8-4[16:1],1h[8:1],{4}8,{8}2h[8:1]/1-5[16:1],8h[8:1],{4}1,
5h[8:1]/6h[8:1],4h[8:1]/5h[8:1],3h[8:1]/4h[8:1],4h[8:1]/5h[8:1],
3h[4:1]/2p5[8:1],2,6h[4:1]/7q4[8:1],7,
{8}3-7[8:1],7-3[8:1],{4},1xw5[8:1],{24}1b,B1,C,B5,{12},{8}3/7h[8:1],
3,4/6h[8:1],4,5/3h[8:1],5,4/2h[8:1],4>6[8:5],
5,E4,E3,E2,E1,E8,{4}E7,
{8}5bx,{16}5,6,{8}5,{16}5,7,{8}5,{16}5,8,{8}5,{16}5,1z5[0.1875##0.2812]*s5[0.1875##0.2812],
{2}5,{8}4/6,7/3,{4}8/2,
{8}8h[8:1],3h[8:1],{4}7h[8:1],{16}8,1,2,3,4,5,{8}6,
,1/6h[8:1],{4}4h[8:1],{16}1,8,7,6,5,4,{8}3b,
,1,1,7,7,5,6,7,
{12}4b,4x,4x,3b,3x,3x,2b,2x,2x,1b-4b[4:15],{6},{8}8,
8,7,7,,8,7,7,
{16}8h[8:1],{8},{16}7,{4}6h[8:1],{2}5h[4:1],
{8}7,7,8,8,,7,8,8,
{16}7h[8:1],{8},{16}6,{8}5,5,{2}5h[4:1],
{8}3pp5[2:1],6,7,7,,7,8,8,
{16}8,1,8,1,8,1,{8}8,7h[4:1],{16}1,2,{4}3pp6[2:1],
{8}8,8h[16:1],1,1,,1,{4}2h[8:1],
{16}8,1,8,1,8,1q8[0.1875##0.4688],8,1h[16:5],{2},{1}1>7q1[4:13]/8-4[16:15],
,4h[1:4],
,{4}B1,
B2,B3,{8}B4,C,
{4}B5,B6,B7,{8}B8,C,
B1,{4},{8}B2/B3/E3,{4}B7/B6/E7,B5/B4/E5,
{8}3,4,5,6h[8:3],,{32}E7,B6,B5,B4,{4}E4,
8<4[4:5],1,2,3,
,4>8[1:1],{2}6h[4:1],
{4}7,8<4[1:1],,4h[8:1],
{8}3,3,2,2,{2}1p3[4:1],
{8}6,6h[8:1],4,4h[8:1],7,7h[8:1],3,3h[8:1],
6,6h[8:1],4,4h[8:1],{2}5-3[8:1],
{8}2,2h[8:1],7,7h[8:1],1,1h[8:1],6,6,
{4}4-8[8:1]/5-7[8:1],4-2[8:1]/5-1[8:1],{8}5/4,{4},{8}3,
{32}3h[4:1]/B6,B5,B4,E4,{4},{8}4,{32}4h[4:1]/B8,B7,B6,E6,{4},{8}3h[8:1],
1h[8:1],8h[8:1],6h[8:1],7-5[8:1],{4},{8},7,
{32}8h[4:1]/B7,B6,B5,B4,{4},{8}2,{32}1h[4:1]/B2,B3,B4,B5,{8},3,6h[8:1],
8h[8:1],1h[8:1],3h[8:1],2-4[8:1],{2},{8}8h[8:3],
{4},{8}1,7/2h[8:3],{4},{8}7,
3h[8:1],4h[8:1],5h[8:1],6h[8:1],{2}7-5[8:1],
{4}2/4h[32:1],3/5h[32:1],6/4h[32:1],7/5h[32:1],
{24}7/B2/B3/E3,6x,{12}5x,,{24}2/B7/B6/E7,3x,{6}4x,Cfh[4:1],{12},{4}B7/B2/E3/E7/A7/A2/A6/B6/B3/A3,
{24}6h[6:1]/1h[6:1],{6},{24}7x/2x,3xh[6:1]/8xh[6:1],{6},{24}7x/2x,6xh[6:1]/1xh[6:1],{6},{24}7x/2x,3xh[6:1]/8xh[6:1],{6},{24}7x/2x,
6xh[6:1]/1xh[6:1],{6},{24}7x/2x,3xh[6:1]/8xh[6:1],{6},{24}7x/2x,{4}1x>4[8:1]/6x<1[8:1],6/1,
3/1-6[8:1],1/2-5[8:1],2/8-3[8:1],8/7-4[8:1],
{8}7/2p7p2[0.5625##0.5625],{4},{8}C,{2},{24}3h[6:1]/8h[6:1],
{6},{24}2x/7x,6xh[6:1]/1xh[6:1],{6},{24}2x/7x,3xh[6:1]/8xh[6:1],{6},{24}2x/7x,{4}1x/6xh[6:1],
{32}7bx,8x,1x,2x,{8}3x,{32}2bx,1x,8x,7x,{8}6x,{32}7bx,8x,1x,2x,{8}3x,{32}2bx,1x,8x,7x,{8}6x,
{4}7xp3[8:1]/3xp7[8:1],3x<7[4:1]/7x>3[4:1],{2}3xv5[16:3]/7xv1[16:3],
{4}B8/B7/A7/D8/A8/E8f,B1/A1/D2/B2/A2/E2f,A5/D6/A6/B6/B5/E6f,A4/D4/A3/B3/B4/E4f,
{24}3h[6:1]/8h[6:1],{6},{24}2x/7x,6xh[6:1]/1xh[6:1],{6},{24}2x/7x,3xh[6:1]/8xh[6:1],{6},{24}2x/7x,6xh[6:1]/1xh[6:1],{6},{24}2x/7x,
3xh[6:1]/8xh[6:1],{6},{24}2x/7x,6xh[6:1]/1xh[6:1],{6},{24}2x/7x,{4}8x<5[8:1]/3x>8[8:1],3/8,
5/7-5[8:1],7/8-4[8:1],8/1-3[8:1],1/3,
{8}4qq1[2:1],{4},{8}5,6,7,{4}8,
{32}8bx,7x,6x,5xh[8:1],{8},{32}8bx,7x,6x,5xh[8:1],{8},{32}8bx,7x,6x,5xh[8:1],{8},{32}8bx,7x,6x,5xh[8:1],{8},{32}A8,
D8/A7,D7/A6,D6/A5,{8},{32}A8,D8/A7,D7/A6,D6/A5,{8},{32}A8,D8/A7,D7/A6,D6/A5,{8},{32}A8,D8/A7,D7/A6,D6/A5,{8},{4}5b/3bxh[4:1],
B4/A4/E4/D4/E3/B2/A2/D3/C/B3f,4b/6bxh[4:1],B5/A5/E6/D6/E7/B7/A7/D7/C/B6f,
4/2h[8:1],5/7h[8:1],4-1[16:1]/5-8[16:1],{48}4b/5b,E5,Cf,E1,{6},{8}2-6[8:1]/1-5[8:1],
2/1,{4}2/1,{8}7-3[8:1]/8-4[8:1],7/8,{4}7/8,
6>3<6[2:1],7,8,1,
{8}7-3[8:1]/8-4[8:1],7/8,{4}7/8,{8}2-6[8:1]/1-5[8:1],2/1,{4}2/1,
7q3[4:1],3q7[4:1],7>2[8:1],B3/E3/B2,
{8}6-8[8:1],5,{4}6/5,{8}4-2[8:1],5,{4}4/5,
5h[16:3]/6h[16:3],4h[16:3]/3h[16:3],6h[16:3]/7h[16:3],2h[16:3]/1h[16:3],
8p4[4:1],4p8[4:1],{2}8-4[4:1],
{8}7,2,5,3,{4}5s1[8:1]/4z8b[8:1],4/5,
7-4[8:1]/8v5[8:1],A8/D8/A7/B8/B7/E8f,2-5[8:1]/1v4[8:1],A1/B1/A2/B2/D2/E2f,
1>4[8:1]*-4[8:1],1-6[8:1]*<6[8:1],1w5[8:1],{32}1b,B1,C,B5,{8},{4}1p4[8:1]/2p5[8:1],
B1/A1/D2/B2/A2/E2f,8q5[8:1]/7q4[8:1],A7/D8/A8/B8/B7/E8f,
1>4[8:1]*-4[8:1],1-6[8:1]*<6[8:1],1w5[8:1],{32}1b,B1,C,B5,{8},8h[8:1],
5,{16}7,5,{8}6,1h[8:1],4,{16}2,4,{8}3,
{4}6>3[4:1],3pp6[2:1],E5/B5/B4,2h[8:1],
2>5[8:1],2/8qq4[4:1],{8}8/1,2,{4}3,
{8}6h[16:1]/3h[16:1],6/3,,2/7,{4}2/7,1>8[1:1]/8<1[1:1],
{1}A8/A1/B1/B8/E8/D8/D2/E2/A7/A2/B2/B7/D1/E1f,
