&title=PANDORA PARADOXXX
&artist=削除
&first=0
&des=LDK
&lv_7=宴
&inote_7=(150)
{1}
,,
{48}
1$,2h[256:1]/8,{999}3,7h[256:1],{48},4$/6h[48:21],
5V31[10.2#170:1]*V71[10.2#170:1],,,,,,,,
{4}
,5h[2:1],,4h[2:1],,3h[2:1],,2h[2:1],,8h[2:1],,
7h[4:1],{8}4h[4:1],,
{24}6,5,6,5,6,5,6,,,,,,
{16}2b/3b/7b/6b,,,,1,,5h[4:1]/6h[4:1],,1,2,3,4,
{16}5h[8:3]/7,,6,,7/8,,7h[4:1]/8h[4:1],,5,4,3,2,
1h[8:3]/8,,7,,6/5,,6h[4:1]/5h[4:1],,3,2,1,8,
5h[8:3]/7,,6,,4/3,,4h[4:1]/3h[4:1],,5,6,7,8,
1<6[8:1],,3,,3,,4/3,,6/7/5,4,3,2,1>4[8:1],,
6,,6,,5/6,,3/2/4,5,6,7,8<5[8:1],,2,,2,,2/3,,
1/2/8,7,6,5,4-7[8:1],,2/1,,1-5[8:1]/2-6[8:1],,,,,,,,
3b/8b,,2,1,2,,7-5[12:1]*-4[12:1],,81,,7,,
1-3[12:1]*-4[12:1]*>4[12:1],,87,,1,,7,,5/6,,3/4,,
{24}
7,2,7,2,7,2,8,1,8,1,8,1,7,2,7,2,7,2,
{16}6/5,4/3,6/7,3/2,8/7,2/1,7/6,3/2,
(999){999}4$/5$,5?-8[37.5#48:1]*-8[37.5#48:1],4?-1[150#12:1]*-1[150#12:1],
(150){16},,,,4b,,,,,,,,,,,,5b,,,,
,,,,,,,,,,,,
3h[8:1],,,3h[8:1]/4h[8:1],,,3h[8:1]/4h[8:1]/5h[8:1],,,
3h[8:1]/4h[8:1]/5h[8:1]/6h[8:1],,,
3-8[4:1]/4-8[4:1]*>1[4:1]/5-1[4:1]*<8[4:1]/6-1[4:1],,,,,,,,,,,,
(200){16}1b-5[900#4:1]/8b-4[900#4:1],,,,2h[16:4]/6,,,,
5h[8:1],,2h[8:1],,7h[8:1],,4h[8:1],,8$/5?-8[8:1],,,,5/3,,1,,
{24}7,6,5,4h[8:1],,,1,2,3h[24:4],,,,{16}
4$/1?-4[8:1],,,,1,,{24}8,7,6,{16}5,,3,,7,,2,,8-5[8:1]/1$/4?-1[8:1],,,,8/4,,,,
2$/6$/3?-6[8:1]/7?-2[8:1],,2?-7[8:1]/6?-3[8:1],,3/7,,,,,,,,
6$/1?-3[8:1]/1,,6,,6$/5?-1[8:1]/1,,,,7$/5/1?-4[8:1],,,,8$/1/4?<4[2:1]*>4[2:1],,,,
,,,,,,,,,,,,
(150)3h[8:3],,3,,4,,5h[8:3],,4,,5,,6h[8:3],,7,,6,,5h[8:3],,5,,4,,
3h[8:3],,4,,3,,2h[8:5],,1,,8,,7h[4:1],,,,
1-4[8:1]*s5[8:1]/8-5[8:1]*z4[8:1],,,,,,,,
3h[8:3]/4h[8:3],,4,,4,,6h[8:3]/5h[8:3],,5,,5,,4h[8:1]/3h[8:1],,
7h[8:1]/8h[8:1],,1h[8:1]/2h[8:1],,6h[8:1]/5h[8:1],,
4-1[8:1]*-8[8:1]/3-8[8:1],,5/6,,3/4,,,,7/6,,6h[8:3]/7h[8:3],,45,,34,,23,,
1b-3[900#2:1]/8b-6[900#2:1],,,,8b-4[900#2:1]/1b-5[900#2:1],,,,
1b>4[900#2:1]*-5[900#2:1]/8b<5[900#2:1]*-4[900#2:1],,,,,,
2h[4:1]/3h[4:1],,45,,45,,7h[4:1]/6h[4:1],,45,,45,,3h[4:1]/4h[4:1],,
1<2[4:1]*V75[16:2]/8<2[4:1]*V64[16:3],,18,,,,,,,,
1h[2:1],,2h[8:3],,3h[8:2],,4h[8:1],,5,,6,,
8h[2:1],,7h[8:3],,6h[8:2],,5h[8:1],,4,,3,,
2h[2:1],,7h[8:3],,3h[8:2],,6h[8:1],,5-1[8:1],,4,,4w8[100#16:1]/5,,,,,,4b,,,,,,
2-6[40#64:1],,,1-5[40#64:1],,,
(999){999}8?-4[50#48:1]*-4[50#48:1],7?-3[100#32:1]*-3[100#32:1],
(150){16}8$/7$,,,,,,7b,,,2b,,,1b/8b,,,,,,
3-6[33.5#75:1],,,7-2[67#48:1],,,1-4[67#48:1],,,5-8[67#48:1],,,7b,,,1b,,,3b/5b,,,,,,
1v7[50#48:1],,1bv3[900#2:1],,,,,,,,5v3[60#36:1],,1b,,,,,,,,5bv6[900#8:2],,
,18,,,7/6/5/4,,,2/3/4/5,,,{32}1,2,3,4,5,6,7,8,{24}1$,2$,3$,4$,5$,6$,{16}7$,,1/8,,
2bV48[4:1]/7b,,,,8?V25[4:1],,,,5?V37[4:1],,,,7?pp2[8:3],,,,,,,,6,,6,,
{2048}7V51[4:1],1?V74[75#8:1],4?V62[50#64:5],
{1024},
{512},
{256},
{128},
{64},
{32},
{16},,,,,,,,,,,2?qq7[8:4],,,,,,,,
4,,4,,4>5[50#128:33],,,,,,,,,,,,5b<4[999#8:39]*<4[999#8:39]/4b,,,,,,,,,,,,,,,,
{16}
4,4,4,4,4,4,4,4,4,4,4,4,{24}4b,4,4,4,4,4,4,4,4,4,4,4,{32}4b,4,4,4,4,4,4,4,
{16}4,,,,1h[8:4]/6,,,,
{24}6,5,4,3,2,1,8,7,6,5,4,3,2h[8:2],1,8,7,6,5,4,3,2,1,8,7,6/3h[8:2],5,4,3,2,1,8,7,
6,5,4,3,2/4h[8:2],1,8,7,6,5,4,3,2,1,8,7,6/5h[8:2],5,4,3,2,1,8,7,6,5,4,3,6h[8:2]/2,1,
8,7,6,5,4,3,2,1,8,7,6/7h[8:2],5,4,3,2,1,8,7,6,5,4,3,2/8h[8:2]/4?-8[12:1],
1,8,7,6,5,4b,,,,,,
{6}
2b-5[999#2:1]/1b,8b-4[999#2:1],1b>4[999#2:1],
7b-4[999#2:1]/5b,1b-5[999#2:1],8b<5[999#2:1],
3b-6[999#2:1]/4b,7b-3[999#2:1],2b-7[999#2:1],
5b-8[999#2:1]/1b,2b-6[999#2:1],8b-4[999#2:1],
1b>4[999#2:1]*-4[999#2:1]/5b,7b<4[999#2:1]*-4[999#2:1],2b<8[999#2:1]*-8[999#2:1],
5b-8[999#2:1]*-7[999#2:1],2b-5[999#2:1]*-4[999#2:1],8b$,{16},,,,
8?-6[50#48:1]*-5[50#48:1]*-4[50#48:1]*-3[50#48:1]*-2[50#48:1]*-2[50#48:1],,,,,
,
{16}
3,5,2,6,1,7,8b,,,,{24}3/8$/4?-8[8:1],7,6,5,,,1,,,1,2,3,4/8,,,
2/6$/1?^6[8:1],,,3,,,1,2,3,4,,,2,1,2,{16}1,3,3,,2/4,,
3/6$/1?^6[8:1],,5,,(999){999}1$,(150){24}5?-1[8:1],2,3,4,,,4,,,4,3,2,1/6,,,
3$/8?^3[8:1]/7,,,4/6,,,8,7,6,5,,,7,8,7,{16}8,6,6,,5/7,,
(999){999}2$,(150){16}5?^2[8:1],8,1,,{24}5$/1?-5[8:1],6,7,8,,,8,,,8,7,6,2/5,,,
4/7$/4?^7[8:1],,,1/2,,,4,3,2,1,,,3,4,3,{16}4,1,1,,2/8,,
(999){999}7$,(150){16}4?^7[8:1],1,8,,{24}4$/8?-4[8:1],3,2,1,,,1,,,1,2,3,4/7,,,
1/8$/5?^8[8:1],,,3/7,,,1/5,2,3,4,,,4/8,3/7,2/6,1/5,4/8,7,6,5,4,3/7,2/6,1/5,
(999){999}8$b/4$,4?z8[150#4:1],8?z4[999#1:1]*z4[999#1:1],
(150){16},,,,,,,,,,
1/5,,2/6,,3>6[4:1]/7,,,,
{999}6?<3[4:1],{16}5,,,,4,,,,5,,5,,7,2,56,3,
{16}56,4,56,3,56,2,56,1,56,2,{24}8,7,6,{16}5,23,6,23,
{24}7,23,8,{16}34,1,34,1,{24}3,4,5,{16}6,,{32}18,27,36,45,,,,,
{24}1w5[30#48:1]/6,2,3,{16}4h[8:1],,
{24}6h[8:1],,,{16}3h[8:1],,7,,34,2b/5b,,56,4b/7b,,1/8,2b/7b,
{16},,1b,,,,,,{999}3$,{16}8?^3[8:1],7,5,,{999}8$,{24}
4?-8[8:1],7,6,
{16}5,,5,,{24}5,6,7,{16}82,,3,3,24,,6,6,57,,
{16}48,37,26,15,{32}6,7,8,1,2,3,4,5,
{2048}6b/2$,8?^2[8:1],
{1024},
{512},
{256},
{128},
{64},
{32},
{16},4,4,4,,
{2048}5$,8?^5[8:1],
{1024},
{512},
{256},
{128},
{64},
{32},
{16},1,1,
{16}1,,2,,6?pp6[4:1]/4?qq4[4:1]/2$/8$,,2/8,,,,,,,,
{24}4>5[50#32:5]*>5[50#32:5]*>5[50#32:5],
5,4,5,4,5,3>5[67#64:11]*>5[67#64:11],5,4,5,4,5,
2<5[100#32:7],5,4,5,4,5,
{16}4$,3$,2$,1$,8$,7$,6$,5$,4$,,,,1-5[27.2#128:5],,,,,,,,,,,,1<1[8:3]*>1[8:3],,,,1,,,,,,,,,,,,2h[8:16],,,,,,,,8h[8:12],,,,,,,,4h[8:8],,,,,,,,6h[8:4],,,,,,,,
1,,,,,1h[4:1]/7h[4:1]/3h[4:1]/5h[4:1],,,,,2h[4:1]/8h[4:1]/4h[4:1]/6h[4:1],,,,,,
1h[4:4],,,,7h[4:3],,,,3h[4:2],,,,5h[4:1],,,,
8V64[16:3]*V24[16:3],,,4?V28[16:3]*V68[16:3],,,8?-4[16:2],,4?-8[16:2],,
8?w4[8:1],,4?w8[8:1],,,,,,,,,
(112.5){16}3b/5b,3,3,4b/6b,6,6,3b/5b,3,3,4b/6b,6,6,3b/5b,3,3,
5b/4b,5,5,4b/3b,3,3,4b/6b,6,6,2b/5b,2b,2b,7b/3b,7b,7b,3b/6b,3b,3b,4b/5b,5b,5b,
(150)3/4/5/6,,,,1/2/3/4,,,,8/7/6/5,,,,1b/2b/3b/8b/7b/6b,,,,
(225){8}7-5[8:1],,3/7-1[8:1],,7/2,,
2-4[8:1]*-8[112.5#16:1],
{16},,2/6,,,,2/7,,,,
{8}7-3[8:1],,1/7-5[8:1],,7/4,,
2-6[8:1]*-4[112.5#16:1],
{16},,2/8,,,,2/5,,,,
{8}5-2[8:1]*-7[8:1],,5-3[8:1]*-8[8:1],,5,,
{2048}4-7[8:1]*-2[8:1]*-1[112.5#16:1]*-6[112.5#16:1],
{16},,,,4,,,,4,,,,
{8}8-6[8:1],,8-4[8:1],,8-5[8:1],,8-2[8:1],,8-3[8:1],,8,,
{9999}1-3[8:1]*-5[112.5#16:1]*-7[56#32:1]*-4[75#24:1]*-6[45#38:1],
{8}
,,1$,,1$,,1$,,1$,,1$,,
{24}1,2h[888:1],3$,4h[888:1],5,6$,7h[888:1],8,1h[888:1],2$,3h[888:1],
{999}4-1[53.7#128:23],
{24}1?-4[53.7#128:23],
{4}5-8[8:1],5b/4,{16},,,,5?-8[4:3]/8?-5[4:3],,,,{4},,,{16},,,,,,3/4/5/6,,
{48}1$b/8$b,2$b/7$b,3$b/6$b,4$b/5$b,,
