&title=about right
&artist=佐藤俊介
&first=0
&des=修復工事
&lv_5=14
&inote_5=(128)
{1},
{8}4-7[8:1]/5,3,2,,4-1[8:1],,6,,
{8}4-7[8:1],,2,,4-1[8:1],,8,,
{8}5-8[8:1],,8-5[8:1],,3-8[8:1],,8-3[8:1],,
{8}7-4[8:1],,4-7[8:1],,1-5[8:1],,5,,
{8}4x/6x-1[8:1],,2-5[8:1],,5-8[8:1],,1,,
{8}2x-5[8:1]/8x,,6-1[8:1],,1-4[8:1],,5,,
{8}4x/6x-3[8:1],,2-7[8:1],,7-4[8:1],,4qq8[4:3]*qq7[4:3],,
{1},
{4}1/6h[1:2],E5,,E5,
{4},E5,,E5,
{4}2h[1:2],E4,,E4,
{4},E4,,E4,
{4}5x-8[4:2],E4/D4,,E2/D2,
{4}2x>5[4:2]/8x,E6/D6,,E8/D8,
{32}8x>5[4:2]/A4,D4,A3,D3,A2,D2,A1,D1,{4}E7/D7,,Ch[4:1],
{16}B4,B8,B3,B7,B2,B6,B1,B5,8,4,1,5,2,6,3,7,
{8}4xbp6[4:1]/8xb,,6q4[4:1],,5,,7xh[128:1],,
{8}7p2[4:1]/5,,2q7[4:1],,8,,3xh[128:1],,
{8}4V27[4:1]/8,,7V14[4:1],,5,,7xh[128:1],,
{8}2/8<5[8:1],,3,3,{16}3,4,,5,4,,56,,
{8}4x/7xV53[4:1],,3V58[4:1],,1,,4xh[128:1],,
{8}8x/3xV57[4:1],,7-4-2[4:1],,8,,5xh[128:1],,
{32}1x<3[4:1]/5x,D6,A6,D7,A7,D8,A8,D1,{8}3xV58[4:1],,1,,Ch[4:1],,
{16}B8,B4,B7,B3,B6,B2,B5,B1,4,8,5,1,6,2,7,3,
{8}4xb/8xb,4-1[8:1],7-4[8:1],4,7,,2/6h[16:3],{16},4h[16:3],
{8},8-5[8:1],3-8[8:1],8,3,,7/1h[16:3],{16},4h[16:3],
{8},8-3[8:1],4-7[8:1],8,4,,4/8h[16:3],{16},2h[16:3],
{8},3,34,{16}5,4,7,5,,3,{8}5,26,
{8}18,28,38,48,37,26,15,48,
{16}1,1,6,6,4,4,8,8,2,2,4,4,5,5,7,7,
{32}1,2,3,4,5,6,7,8,1,2,3,4,5,6,7,8,E2,E3,E4,E5,E6,E7,E8,E1,A2,A3,A4,A5,A6,A7,A8,A1,
{8}A2/6x,,6x,,6x,,57,45,
{8}2,5-2[8:1]/3,2/8-5[8:1],57,8w4[8:1]b,,8xb,{16},2x/6xh[16:3],
{8},4-7[8:1],1-4[8:1]/7,24,1w5[8:1]b,,1xb,{16},8x/3xh[16:3],
{8},4>1[8:1],2/8<5[8:1],4/6,8w4[8:1]b,,8xb,{16},2x/6xh[16:3],
{8},4,57,{24}7,6,5,{16}34,3h[8:1],,6,5/7h[8:1],,8,,
{8}17,6/4-8[8:1],2/1-5[8:1],43,1v6[8:1]b*v4[8:1]b,,1xb,{16},7x/3xh[16:3],
{8},5-1[8:1],8-4[8:1]/2,75,8v3[8:1]b*v5[8:1]b,,8xb,{16},1x/7xh[16:3],
{8},5-8[8:1],8-3[8:1]/2-5[8:1],53,2w6[8:1]b,,2xb,{16},8x/4xh[16:3],
{8},5,42,{24}2,3,4,{16}56,6h[8:1],,3,2h[8:1]/4,,1,,
{8}28,46,1-5[8:1]/8-4[8:1],27,1/8>7[16:3]b,,{48}5xb,E6,B6,,,,{16},8xh[16:3],
{8},4-7[8:1],1-4[8:1]/7,24,1<2[16:3]b,,{48}4xb,E4,B3,,,,{16},8xh[16:3],
{8},4-1[8:1],1/7-4[8:1],46,7V14[8:1]b,,{48}5xb,E6,B6,,,,{16},8xh[16:3],
{8},5,17,{32}1,2,3,4,{16}56,7,,1,2/4h[8:1],,5h[8:1],,
{8}8,6/4-8[8:1],2/1-5[8:1],43,1<2[16:3]b,,{48}4xb,B4,C,,,,{16},1xh[16:3],
{8},5-1[8:1],8-4[8:1]/2,75,8>7[16:3]b,,{48}5xb,B5,C,,,,{16},8xh[16:3],
{8},5-7[8:1],7-3[8:1]/1-3[8:1],53,1V75[8:1]b,,{48}4xb,B4,C,,,,{16},1xh[16:3],
{8},4,82,{32}8,7,6,5,{16}43,2,,8,7/5h[8:1],,4,,
{8}4x/8x,26,4p8[8:1]/8v5[8:1],62,4/8>7[16:3]b,,{48}6xb,E7,B7,B8,E1,,{16},8xh[16:3],
{8},4q8[8:1],1v4[8:1]/7,24,1<2[16:3]b,,{48}3xb,E3,B2,B1,E1,,{16},8xh[16:3],
{8},4V28[32:5],8/7v5[8:1],46,7-1-3-5[32:5]b,,{48}6xb,E7,B7,B8,E1,,{16},8xh[16:3],
{8},5,17,{32}1,2,3,4,56,7,{16}8h[8:1],,1,2/4h[8:1],,5h[8:1],,
{8}8,6/4q8[8:1],2/1q5[8:1],43,1<2[16:3]b,,{48}4xb,E4,B3,B2,B1,,{16},8xh[16:3],
{8},5p1[8:1],8p4[8:1]/1,75,8>7[16:3]b,,{48}5xb,E6,B6,B7,B8,,{16},1xh[16:3],
{8},5V71[32:5],1-3[8:1]/2v4[8:1],54,2-8-6-4[32:5]b,,{48}3xb,E3,B2,B1,E1,,{16},1xh[16:3],
{8},4,82,{32}8,7,6,5,43,2,{16}1h[8:1],,8,7/5h[8:1],,4h[8:1],,
{8}3>6[4:1],,6<4[4:1],,4p6[4:1],,7xh[128:1],,
{8}5<2[4:1],,2-8-6-4[4:1],,4q2[4:1],,1xh[128:1],,
{8}4>6[4:1],,6-8-2-4[4:1],,4-1-6[4:1],,7xh[128:1],,
{8}4-8[8:1],,2,{24}2,3,4,{16}57,7,,3,5/3h[8:1],,4,,
{8}3/4<1[4:1],,1<3[4:1],,3q1[4:1],,8xh[128:1],,
{8}2>7[4:1],,7-5-3-1[4:1],,1q7[4:1],,6xh[128:1],,
{8}8<2[4:1],,2-4-6-8[4:1],,8-5-2[4:1],,3xh[128:1],,
{8}8-3[8:1],,7,{24}7,6,5,{16}43,2,,6pp8[8:1]*p1[8:1],4/6h[8:1],,5,,
