&title=ニッポン笑顔百景
&artist=ももいろクローバーZ
&first=0.06
&des=笑おう(0v0)
&lv_5=13+
&lv_6=13+
&inote_5=(160)
{1},
{8},,7-2[2.8##1.2]*-2[2.8##1.2]*-2[2.8##1.2]*-2[2.8##1.2]*-2[2.8##1.2],,
{8}E7,E6,E5,,C,,C,,,E3,E4,,E5,,
{4},,,,Ch[4:3],,,8b,
{16}3,4,2,,6,5,7,,2,4,3,5,4,6,5,7,2,2,5,3,3,6,4,4,
{8}7<4[8:1],4,7,1,7<4[8:1]*<4[8:1],4,7,1,7<4b[8:1],4,7,1,
{16}2,8,2,7,2,6,2,5,2,4,2,3,2,,,,
{16}6x,5x,4x,,1,,3x,4x,5x,,7,,7,,,,
{16}3h[16:3],,,4,3,,5,,6,,,,
{16}7-5[8:1],,7,,7/3-5[8:1],,,,7-5[8:1]/3,,,,7/2-7b[16:1],,,2bx,,,,,
{16}B8,B3,B6,B1,E8,B4,B5,E2,B7,E4,B5,B1,B8,B2,B7,,
{8}3xh[1:0]/4x,2h[1:0],1h[1:0]/8,7,
{8}5xh[1:0]/6[1:0],4h[1:0],3h[1:0]/4<7[4:1],,
{16}1,,2,,3,,4,,3,,3,4,2,,
{16}3,,6h[1:0],,6h[1:0],5h[1:0],7-3-5-1[4:1],,6h[1:0],,,,,,,,,,
{8}5x-3[8:1]*-7[8:1],,5x-1[8:1],,5x-2[8:1]*-8[8:1],,5x,,
{8}1>5[4:1],,5<1[4:1],5,1>5[4:1],,5<1[4:1],,1-5-2-4[2:1],,,6,7,,8,,
{8}1v2[4:1],,1,,5,5,,1v4[4:1],,1,,5,,5,6,7,
{8}8V64[4:1],,4V28[4:1],4,8V64[4:1],,4V28[4:1],,8-6>5v7[2:1],,,2,3,,4,,
{8}Chf[8:14],,,,,,,,E8,B8,E1,B1,E2,,,,
{8}7<4[8:1],8,1,2<7[8:1],3,4,5,
{8}6x-8[8:1],,6-1[8:1],5,6,4-1[8:1],,4b,,
{8}7-4[8:1],8,2-5[8:1],1,7,8,,
{8}6x-2[8:1],,6-3[8:1],3x,6x,4x-1b[8:1],,4b,,,
{8}8/5,7/4,6/3,,6,6,6,,2/5,3/6,4/7,,4,4,4,
{4}4xs8[4:5]/5xz1[4:5],,,,,,,,8-6>5[4:1]/1-3<4[4:1],,,
{8}2b/8b-4[8:1],1,7b/8b,,2b/8b-4[8:1],1,7b/8b,,
{16}2-6[8:1]/6,,1/7,,2/6,,,7,8-4[8:1],,1,,8,,,,
{8}2>4[8:1]/6>4[8:1],2/6,2/6,,7<5[8:1]/3<5[8:1],7/3,7/3,,
{8}5/6,1/8,3/4,1/8,5/6,1/8,3/4,,
{8}6x>3[8:1]/3x<6[8:1],3x/6x,3x/6x,,
{32}5xh[8:1]/3xb,E3,B2,B1,E1,,,,5xh[8:1]/3xb,E3,B2,B1,E1,,,,
{8}2x/7x,3,4v1[8:1]/6,4,7v4b[8:1],7,3/7,,
{8}Cf,,6-3[8:1],6,7-2[8:1],7,6-3[8:1],6,2,2,
{16}1xb,,1xb,,1xb,,1xb,1xb,1xb,,1xb,,
{8}1xb<6b[8:1],8b,1b/2,,7b/1b<6b[8:1],8,1b/3b,,
{8}7-3[8:1]/3,6/4,7/3,2,1w5[8:1],3/7,1,,
{8}6-4b[8:1]/2-4b[8:1],2/6,2/6,,3-5b[8:1]/7-5b[8:1],3/7,3/7,,
{8}1>4[8:1],1,1<6[8:1],,1z5[8:1]*s5[8:1],,1,,
{8}7/3,8/4,1<6b[3:1]/5,,D4/A3/E4/B3/E3,D4/A3/E4/B3/E3,D4/A3/E4/B3/E3,,
{16}4-8[16:1],,3/5,,4,,,7,8-4b[8:1],,2/6,,8,,,,
{4}Cf,2>5b[8:1]/5>2b[8:1],D4f,7<4b[8:1]/4<7b[8:1],D6f,
{32}1x,2x,3x,4x,5x,6x,7x,8x,
{32}1x,2x,3x,4x,5x,6x,7x,8x,
{32}B1,B2,B3,B4,B5,B6,B7,B8,
{32}B1f,,,,,,,,
{8}7xb-3[8:1]/1xb-5[8:1],7xb/1xb,7xb/1xb,,
{8}2xb-6[8:1]/8xb-4[8:1],2xb/8xb,2xb/8xb,,
{8}7b-3b[8:1]/8b-4b[8:1],1b/6b,7b/8b,,
{8}2b-6b[8:1]/1b-5b[8:1],8b/3b
,2b/1b,,
{8}8/2,7-4[8:1]/3-5[8:1],8/2,7/3,,
{8}7-3[8:1],8,7/1-4[8:1],2,1/6-1[8:1],5,6/3,3,8xb,8xb,,
{8}2b>5b[8:1]/5b-2b[8:1],2b/5b,2bx/5bx,,
{8}7b/8b,7b/8b,7b/8b,,
{8}7b<4b[8:1]/4b-7b[8:1],7b/4b,7bx/4bx,,
{8}1b/2b,1b/2b,1b/2b,,
{8}2/7,3-6[8:1]/6>3[8:1],2/7,3/6,,
{8}3x/5x,1x/7x,3v8[8:1]/5,7v4b[8:1]/1,3-6[8:1]/5,7-2b[8:1],3,7b,,
{1}E1f/E2/E8/B1/B8,
E
&inote_6=(160)
{1},
{4},1<8-5>4[2:1]/8>1-4<5[2:1],,,,1<6-8[2:1]/8>3-1[2:1],,,,
{4}4-1[1.3##1.2]*-1[1.3##1.2]*-1[1.3##1.2]*-1[1.3##1.2]*-1[1.3##1.2],,,,,,,5b,
{16}3,4,2,,6,5,7,,2,4,3,5,4,6,5,7,2,2,5,3,3,6,4,4,
{8}7<4[8:1],4,7,1,7<4[8:1]*<4[8:1],4,7,1,7<4b[8:1],4,7,1,
{16}2,1,2,8,2,7,2,6,2,5,2,4,2,,,,
{16}8,7,6h[2:1],,1,,1,2,3h[4:1],,,,,,,,
{16}2h[4:1],,,1,1h[8:1],,8h[2:1],,7,,,,
{16}7-1[8:1],,6h[8:5],,7-5[8:1],,,,7-4[8:1],,,,7-2b[16:1],,,A7,,,,,
{16}B1,B6,B3,B8,E2,B5,B4,E8,E3,E6,B4,B8,B1,E7,B2,,
{8}3h[1:0]/4h[1:0],2h[1:0],1h[1:0]/8h[1:0],7h[1:0],
{8}5h[1:0]/6h[1:0],4h[1:0],3h[1:0]/5-7>1-6[4:1],,
{16}2h[1:0],,3h[1:0],,4h[1:0],,3h[1:0],,3h[1:0],,3h[1:0],4h[1:0],2h[1:0],,
{16}3h[1:0],,6h[1:0],,6h[1:0],5h[1:0],7-2-5-1[4:1],,6h[1:0],,,,,,,,,,
{64}6xh[2:1]/4x,D4,A3,D3,A2,,,,,,,,,,,4xh[1:0],E5,B5,E6,E7,,,,,,,,,,,,,
{64}1x,E2,B2,E3,A3,,,,,,,,,,,,1xh[1:0],D1,A8,E8,E7,,,,
{8},4x>8[4:1],,8x<4[4:1],8x,4x>8[4:1],,8x<4[4:1],,4x-2-5-1[2:1],,,,,,,,
{8}8xV64[4:1],,4xv7[4:1],,2x,2x,,1x-5[4:1],,5xqq1[2:1]*pp1[2:1],,1x,,,,,
{8}8xV64[4:1],,4V28[4:1],C,8V64[4:1],,4V28V64-7-5-1b[1:1],,C,,
{4},,
{8},A2,3-7[8:1],,A3,,8p4[8:1],B1,A8,,Chf[4:3],,,,,,,,
{8}7<4[8:1],8h[1:0],1h[1:0],2<7[8:1],3h[1:0],4h[1:0],5>2[8:1],
{8}6-8[8:1],,6-2[8:1],5h[1:0],6h[1:0],4-1[8:1],,4h[1:0]b,,
{8}8x-5[8:1],2x,8x,7x,4x-8[8:1],2x,4x,5x-1[8:1],,
{8}5x<7[8:1],3x,5x,4x-1b[8:1],,4xb,,,
{8}A1/A5,A2/A6,A3/A7,,A4,A4,A4,,D7/D4,D6/D3,D5/D2,,A4,A4,A4,
{4}2h[8:11]/6h[8:11],,,,,,,,Ch[2:1],,,
{8}2b/8b-4[8:1],1,7b/8b,,2b/8b-4[8:1],1,7b/8b,,
{8}2-6[8:1]/6,1/7,2/6,5,4-8[8:1],3,4,,
{8}1-5[8:1]/5-7[8:1],4/8,1/5,,8-4[8:1]/4-2[8:1],5/1,8/4,,
{8}3-1[8:1],7-5b[8:1],3-6[8:1],7-2b[8:1],3-8[8:1],7,3,,
{8}1/8,2/7,3/6,,
{32}5h[8:1]/3xb,E3,B2,B1,E1,,,,5h[8:1]/3xb,E3,B2,B1,E1,,,,
{8}2x/7x,3,4v1[8:1]/6,4,7v4b[8:1],7,3/7,,
{4}Cf,8<5[8:1]/5<8[8:1],A8f/A5,1>4b[8:1]/4>1b[8:1],A1/A4f,
{16}3xb/B3,,6xb/B6,,2xb/B2,,7xb/B7,1xb/B1,8xb/B8,,2xb/B2,,
{8}1b<6b[8:1],8b,1b/2,,7b/1b<6b[8:1],8,1b/3b,,
{8}7-3[8:1]/3,6/4,7/3,2,1w5b[8:1],2/6,1,,
{8}1-4[8:1]/4-6[8:1],3/6,1/4,,8-5b[8:1]/5-3b[8:1],6/3,8/5,,
{8}1>4[8:1],1,1<6[8:1],,1z5[8:1]*s5[8:1],,1,,
{8}7/3,8/4,1<6b[3:1]/5,,D4/A3/E4/B3/E3,D4/A3/E4/B3/E3,D4/A3/E4/B3/E3,,
{16}4-8[16:1],,3/5,,4,,,7,8z4[8:1]*-4b[8:1],,2/6,,8,,,,
{4}Cf,8<5[8:1]/5<8[8:1],A8/A5f,1>4b[8:1]/4>1b[8:1],A1f/A4,
{4}Cf/B1/B2/B3/B4/B5/B6/B7/B8/E1/E3/E7/E4/E6,,,,
{8}7b-3[8:1]/8b-4[8:1],1b/6b,7b/8b,,2b-6[8:1]/1b-5[8:1],8b/3b,2b/1b,,
{8}7bz3[8:1]/8bs4b[8:1],1b/6b,7b/8b,,2bz6[8:1]/1bz5b[8:1],8b/3b,2b/1b,,
{8}1/7,2v5[8:1]/6-4[8:1],1/7,2/6,,
{8}2-6[8:1],1,2/8-5[8:1],7,8/3-8[8:1],4,3/6,6,5b,5b,,
{8}8bxp4[8:1]/4bxp8[8:1],4bx/8bx,4bx/8bx,,
{8}8bx>4[8:1]/4bx<8[8:1],4bx/8bx,4bx/8bx,,
{8}1bxp5b[8:1]/5bxp1b[8:1],1bx/5bx,1bx/5bx,,
{8}1bxV35b[8:1]/5bxV71b[8:1],1bx/5bx,1bx/5bx,,
{8}1/8,2v8[8:1]/7v1[8:1],1/8,2/7,,
{8}3v8b[8:1]/5,7v4[8:1]/1,3-6b[8:1]/5,7,3,7-3[8:1],3,7,,1b,
