&title=白xx二阶段尾杀练习
&artist=xi
&first=0
&des=Xaleid◆scopiX(练习自用)
&des_5=Xaleid◆scopiX(练习自用)
&lv_5=练
&inote_5=(180)
{8},,,,,,,,,,,,,,,,,,,,,,,
{32},,
{8}5,{4}6/2,
{32}2,3,6,5,2,3,6,5,1,2,7,6,1,2,7,6,2,3,8,7,2,3,8,7,3,4,7,6,3,4,7,6,
1,2,7,6,1,2,7,6,2,3,6,5,2,3,7,6,3,4,7,6,3,4,8,7,2,3,7,6,1,2,6,5,
{1}Cf,
,,,{2}Cfh[1:3]/B2h[1:3],
B3h[2:5],
B4h[1:2],B5h[2:3],
B6h[1:1],B7h[2:1],
,{16}1,8,1,8,1,8,1,8,
{32}2,3,4,5,{8}6,8/2,{32}8/2,3,4,5,{8}6,2/8,{32}1,2/8,3/7,4/6,{8}5,
{32}7/1,6,5,4,{8}3,1/7,{32}1/7,6,5,4,{8}3,7/1,{12}2b/6b,6b/2b,6b/2b,
{32}5/1,2,3,4,{8}5,{32}4/8,7,6,5,8,7,6,5,{8}4/8,1,{32}5/1,2,3,4,{8}5,
{32}4/8,7,6,5,{8}4,{32}5/1,2,3,4,1,2,3,4,{8}5/1,2/6,{4}3h[8:1]/7h[8:1],
{32}4,6,4,6,4,6,4,6,3,7,3,7,2,8,2,8,1,1,1,1,{8}1,{4}A2/D2/E2f/B1/B2/E3,
{32}5,3,5,3,5,3,5,3,6,2,6,2,7,1,7,1,8,8,8,8,{8}8,{4}A7/D8/E8f/B8/B7/E7,
{32}1,2,3,4,5,6,7,8,1,2,3,4,1,2,3,4,8,7,6,5,4,3,2,1,8,7,6,5,8,7,6,5,
2,3,4,5,2,3,4,5,6pp4[4:1]*pp4[4:1],7,8,1,2,3,4,5,{2},{32}5/7h,
8,1,2,3,4,5/7h,8,1,2,3,4,5/8h,7,6,5,4,3,2/8h,7,6,5,4,3,2/8h,7,6,5,4,3,2,1,
2h,3/8,4/7,5,6,7,8,1/6,2/5,3,4,5,6,7/4,8/3,1,2,3,4,5/2,6/1,7,8,1,2,3,2,3,2,3,2,3,
2/4,3/5,4/6,5/7,6,7/5,6/8,1/7,{4}2bh[4:15]/8bh[4:15],
