&title=恋さくミライ
&artist=佐咲紗花
&first=-0.27
&des=GAHOU
&lv_5=13
&inote_5=(168)
{1},,,
{1}4-1[4:3],
{2}5-8[8:3],1b,
{1}2q7[8:5],
{8}5<2[8:3],,,4q3[16:5],,,,,
{8}5pp5[8:3]*p5[8:3],,,,,,4,,
{8}4h[4:1]/2h[4:1],,,4qq2[4:1]*pp6[4:1]/1,,,,,
{8}3<6[4:1]/5,,,7p3[4:1],,,,2<4[8:3],
{8},,,,8w4[8:1],,8,,
{8}1v4[8:1]/7,,7,7<5[8:1],,2pp4[8:1],,6pp6[16:5],
{16},,3,,2,,1h[8:3],,,,5,,5,,3,4,
{8}2,2>4[8:1],4,2,,7<4[8:1],5,7,
{8},1-5[8:1],4,1,,8,1/7,,
{8}8v5[8:1]/1,,2,2>4[8:1],,7qq5[8:1],,3qq3[16:5],
{16},,6,,7,,8h[4:1],,,,4,,6/2,,5,4,
{16}6,,3,4,2,,6,5,8,,3,4,1,,8/1-5[8:1],,
{8},6/1,,8,7-4[8:1]/3-8[8:1],,7b/3b,,
{4}5/1h[4:3],5,5,5,
{4}5/2h[4:1],5,3h[4:1]/5,5,
{4}5/4qq4[8:5],5,5,5,
{4}6/5v3[8:1],6,6/2>4[8:1],6,
{4}5/8h[4:3],5,5,5,
{4}5/7h[4:1],5,6h[4:1]/5,5,
{4}5pp6[4:1]/4,4,{16}4,,4,5,3,4,2h[4:1],,
{8},1-5[8:1],8,7/1,,8,6/2,{16}5,5,
{16}3,,4,,2,,4,4,3,,4,,2h[4:1],,5,,
{16}6,,5,,7,,5,5,6,,5,,7h[4:1],,8,,
{16}1,,8,,2,,1,1,2,,1,,3h[8:1],,8,,
{16}7/5-8[8:1],,4,,5,,3,3,1v6[8:1]*>4[8:1],,2,,1,,,,
{16}7/5,,6,,5,,7,7,5,,6,,7/4,,3,,
{16}2/4,,3,,4,,2,2,4,,3,,2/5,,1,,
{8}8bV64[8:1]/1bp4[8:1],,8b/1b,,3/4,3pp4[4:1]*V14[4:1]/4,,3b,
{8},,6/2,,8/4,3,6<3[16:5]/2,5,
{16}1,,,,,,1,1,6,,5-3[12:1],,,,7-5[12:1],,
{16},,1h[4:1],,,,5,5,2,,4,,3>6[16:5],,,,
{16}8,,,,,,8,8,3,,4-6[12:1],,,,2-4[12:1],,
{16},,8h[4:1],,,,4,4,6v3[8:1],,6,,,,,,
{16}1h[8:3]/4,,,,,,5,4,6-1[8:1],,,,2-6[8:1],,2,,
{16}8,,8h[4:1],,,,4,5,2h[4:1],,,,5,,5,4,
{16}7h[8:3],,,,,,1,8,2-6[8:1],,,,8,,7<4[8:1],,
{16},,3,,2,,1,4,1-5[8:1],,1,,8,,7,7,
{16}3,,4,,5/2,,4,4,3,,5,,6/4,,5,5,
{16}6,,5,,7/5,,6,6,4,,5,,4/3,,2,2,
{16}1,,2,,7/2,,1,1,8,,1,,1/7,,6,6,
{16}8-3[8:1],,8,,6-2[8:1],,6,,4-1[8:1],,4,,8,,,,
{16}7,,6/1,,5/2,,4,3,4-8[8:1]*-1[8:1],,5/2,,,,,,
{16}2,,3/8,,4/7,,5,6,5-1[8:1]*-8[8:1],,4/7,,,,,,
{16}2/8,,4/6,,7/2,,8,1,7,2,7,2,6,3,6,3,
{4}5b<4[8:3],,5w1[8:1],,
{8}7/3,,7/1,7/1>4[8:1],,5-2[8:1],6-1[8:1],5,
{8}6,,4,4pp4[4:1]*qq4[4:1]/8,,,,,
{8}2-5[8:1],5-1[8:1],2,7-3[8:1],,4-8[8:1]/7,,4/6,
{8},5-1[8:1],1-3[8:1]*-7[8:1],,,,1-5[8:1],,
{8}8/1,,7<4[8:1],8,7,1pp1[4:1],5,1b,
{16},,4q8[8:1],,2,,4,,,,1/2,,8/3,,4,4,
{8}6,5/4-8[8:1],3,4/2,,1-5[8:1]/2,8,1/7,
{16},,8,,3/5,,7/1,,3,5,3,5,4pp6[8:1]*qq2[8:1],6,4,6,
{8}4b,,5/3,5<8[8:1]/3,,2-5[8:1],1-6[8:1],2,
{8}1,,1,1q7[24:5]/5q3[24:5],,,,,
{8}7<4[8:1],4-8[8:1],7,2-6[8:1],,5pp5[4:1]/2,,5b/3b,
{8},2,2,1bq5[8:1]/5bq1[8:1],,1bqq7[8:1]/5bqq3[8:1],,,
{8},8<5[8:1],4,8,,3>8[8:1],4,3,
{8},7p2[16:3],8,7,,1,8/2,{16}7,7,
{16}3<6[8:1],,3,,7p3[8:1],,7,,2,,2,,1,7,2,6,
{1}5bpp4[2:1]/3bqq4[2:1],
{8}8v5[8:1]/2,,2,2>4[8:1],,7qq5[8:1],,3qq3[16:5],
{16},,6,,7,,8h[8:3],,,,4,,4,,6,5,
{8}7,7<5[8:1],5,7,,2>5[8:1],4,2,
{8},8-4[8:1],5,8,,1,8/2,,
{8}1v4[8:1]/8,,7,7<5[8:1],,2pp4[8:1],,6pp6[16:5],
{16},,3,,2,,1h[4:1],,,,5,,3/7,,4,5,
{16}3,,6,5,7,,3,4,1,,6,5,8,,1/8-4[8:1],,
{8},3/8,,1,2-5[8:1]/6-1[8:1],,2/6,,
{1}8<1[2:2]/4,
{4},4,,4,
{4}4/5,4/3,3/2,2/1,
{8}8/1,8/1,7/2,7/2,{16}3,6,3,6,4,5,4,5,
{1}4bq5[1:5]*>5[1:5],
