&title=J219
&artist=Cranky
&first=-0.04
&des=H@NE
&lv_5=13+
&inote_5=(147)
{2},,,
{8},,,,,,,,,,,,,,,,,,,,,,,,,,,,
{8},,,,,,,,,,,
{16}4,5,4,6,4,,,,,,,,3,,,,6,6,,,,,,,,,,,,,,,2,4,,3,5,,6,,6,,,3,,3,,,4,,
{8}1<6[1:2]/5>2[1:2],,,,,,,,,,,,,,,,,,,,
{16},,,,,,,,3,3,,7,7,,2,2,
{16},5,5,,3b/7b,,,,1,5,2,4,3,1,4,8,
{16}5h[4:1]/7-3[8:1],,,,,,,,5h[4:1]/1h[8:1],,,,3h[8:1],,,7,
{16},7h[16:3],,1,1,,7,,1-5[8:1],7,1,3,1,,6,6,
{16},4,4,,6<1[4:1],,5,,6h[4:1],,,,,,,,
{16}4/5,,6,,3/4,,2,,1,5,2,4h[8:1],,3,4,,
{16}2h[4:1]/5-1[8:1],,,,,,,,3h[4:1]/7h[8:1],,,,5h[8:1],,,2,
{16},2h[16:3],,8,8,,2,,8-4[8:1],2,8,6,8,,3,3,,7,6,5,4/3,,2,,1>4[2:1]/5<8[2:1],,,,,,,,
{16},,,,,,,,3/7,,2,,1/8,,7-4[8:1],8,
{16},8,7,,1,,2,,3/5,,6,,7/8,,1-4[8:1],8,
{16},8,1,,7,,6,,3/5,,4-8[8:1]/7,,,,4>1[8:1]/7<4[8:1],,
{16},,4/7,,,,,,5/8,,3/7-3[8:1],,,,3>8[8:1]/7<4[8:1],,
{16},,3/7,,,,,,1/5,,2,,3/4,,2-5[8:1],4,
{16}2,5,2,,6,,7,,4/8,,7,,5/6,,7-4[8:1],5,
{16}7,4,7,,3,,2,,1/5,,2/4,,3,,4h[4:1]/6,,7,,8,,1-5[16:3],,,,5<8[16:3],,,,4h[4:1],,,,
{16}1,2,3,4,1-5[8:1]/5,,,,1b,,6,7,8h[8:1],,4,3,
{16}2h[8:1],,1,,8-4[8:1],,7,,6/8,,5,,4-8[8:1]/2,,3,,
{16}4<7[8:1]/6,,5,,4/2,,3,,4,,5h[8:1]/6,7,8,,3/4h[8:1],2,
{16}1,,5/1,,6,,7,,8h[4:1],,,2,2h[4:1],,,6,
{16}6h[4:1],,,1,1h[4:1],,,,5,,2/5,3/6,4/7,,4/7,3/6,
{16}2/5-1[8:1],,,,2-6[8:1]/5,,3,,4,,5,,4-8[8:1],,3,,
{16}4/7-3[8:1],,6,,5,,6,,7h[4:1],,4-1[8:1],4,,,5-2[8:1],5,
{16},,4-7[8:1],4,,,5-8[8:1],5,,,4-1[8:1],4,,,5-2[8:1],5,
{16},,4-7[8:1],4,,,5-8[8:1],5,,,4-1[8:1],,3,,5-8[8:1]/4,,
{16}6,,4/5,,3,,4,,6,6/5,,3,3/4,,7,6/8,
{16},2,1/3,,4b/8b,,,,3>8[8:1]/7<4[8:1],,,,3/7-3[8:1],,,,
{16}1/7,,1-5[8:1],,,,1/6-3[8:1],,,,6/2-6[8:1],,,,6<1[8:1]/2>5[8:1],,
{16},,2/6,,,,8,,8<5[8:1]/4>1[8:1],,,,8/4,,,,
{16}1-5[8:1],,5>2[8:1],,1,,6,6,,,6,,1,,6,,
{16}1,1,5,5,1,1,5,,2>5[8:1]/6<1[8:1],,,,2-6[8:1]/6,,,,
{16}2/8,,8-4[8:1],,,,3-6[8:1]/8,,,,3/7-3[8:1],,,,3>8[8:1]/7<4[8:1],,
{16},,3/7,,,,1,,1>4[8:1]/5<8[8:1],,,,1/5,,,,
{16}1-5[8:1],,3,,1,,3,3,6,4,7,3,8h[8:1],,3,7,
{16}1-5[8:1],6,2,8,1b,,,,8,4,7,5,6,8,5,1,
{16}2h[4:1]/4,,5,,6,,7,,8h[8:1]/4h[4:1],,,,6h[8:1],,,2,
{16},2h[16:2],,8,7/1,,2/6,,6-2[8:1],8,6,4,6,,3,3,
{16},1,8/2,,3>8[8:1]/7,,8<5[8:1],,3/4h[8:3],,,,,,,,
{16}4,5,6,7,8/1,2,3,4,7,4,6,5h[8:1],,7,5,,
{16}4/6h[4:1],,3,,2,,1,,8h[4:1]/4h[8:1],,,,6h[8:1],,,3,
{16},3h[16:2],,1,8/2,,3/7,,7-3[8:1],5,7,1,7,,2,2,
{16},4,4,2,2,,2/4,,3,3/4,,5,5/4,,2,2/4,,6,6/4,,3,,2/8,,7,7/8,,1,1/8,,6,7/5,,2,1/3,,8,,5/7,,4,4,3,2,2,,6,6,7,8,8,,1/3,,2
,,1-4[1:1]/4<7[1:1],,
