&title=ツキアカリのミチシルベ
&artist=ステレオポニー
&first=-0.41
&des=Æqual
&lv_5=13
&inote_5=(131){4},{8},,,,,,6,
5,4,3,2,2h[4:1],,4h[4:1],
,6h[4:1],,8<5[4:1],8,,,2,
3,4,5,6,7,7h[4:1],,5h[4:1],
,3h[4:1],,1>4[4:1],{2}1,
{8}5,6,7,8,1,8/2,,6/4,
,1,2-6[8:1],8,{4}2/7-3[8:1],{8}7/1-5[8:1],8,
{4}1,{8}6/3,{16}4,4,5,5,{8}4-8[8:1],,3,
,2-6[8:1],,1,,8-4[8:1],,7,
,6-2[8:1],,5-1[8:1],,4,,3-7[8:1],
,2,,1pp4[8:3],8,8,,,,7<4[4:1],
,4pp1[8:3],{16},,,,,,,,,,2,
4,3,5,5,4,{2}4p8[8:1],
{8},6/4,{16}3h[16:3],4,,,,,{8}5,4,6<1[4:1],
,3,{4}2>5[4:1],{8}2,{16}7,7,,,{8}6,
6,5/4,{16}3h[4:1],4,,,,,{8}2>4[8:1],4q1[4:1],2,
5h[4:1],,,8,7/1,1/7,{16}8,8,{8}1,
,6,{16}6,4,,,{8}5h[8:1],4h[8:1],3h[8:1],2qq4[8:3],
,2,{4}6h[4:1],{8},,5,6/4,
3,2/1q5[4:1],8,7h[4:1],,,6,5/4,
3,2/8>5[2:1],{4}7,7b,7b,
{16},,7,6,{8}5-3[8:1],1V37[4:1],5,1,{16},,,,,,2,
3,{8}4-6[8:1],8V62[4:1],4,8,,,,5,
6/4,3,4/2,1>4[8:1],1,7,
6,5-1[8:1],5,4-8[8:1],4,7,6,5b/1b-5[8:1],
6,6/1,6,6/4-2[8:1],6,6/4,6,3/4-8[8:1],
3,3/4,3,3/7-5[8:1],3,3/7,3,3/4,
7,6/5,2,5/4,7/8,2/3,6/5,8b/1b,
{4}8b/1bs5[8:1],Cf,{8},7-3[8:1],8,7/2q6[8:1],
,2/5,{16},,{8}7-4[8:1],5-1[8:1],7,{4}5,
{8},6-8[8:1],2-8[8:1],6-4-8[4:1],2,,,1-5[8:1],
,1/7q3[8:1],,7/6-8-5-2[8:3],,6,{4}4h[4:1],
{8},,4/2,3,5/7,6,5/3,4-8[8:1],
,4/6v1[8:1],,6,2v5[8:1],{16}8,8,{4}2/7-3[8:1],
{8}7/5-2[8:1]*-8[8:1],4,{4}5b,{8}7x/2x,{16}1,8,1,8,{8}1>4[4:1],
,4<7[4:1],,7>3[4:1],,3v5[4:1],,,,,7
||这是一个标记~
,
6/3-1[8:1],4,3/7-4[8:1],8,7/2-6[8:1],
,2/5,,4<7[8:1],1q5[8:1],4,{4}1,
{8},1-5[8:1],6-2[8:1],1-7-3[4:1],6,,,5-1[8:1],
,5/7-4[8:1],,7/2>4-1<5[2:1],,2,{4}8h[8:3],
{8},,3,4/2,8,7/1,5,6/4-1[8:1],
,5/4-7[8:1],,3/4,2-6[8:1],{16}8,8,{8}2/7-3[8:1],8,
7/5w1b[8:1],4,{4}5b/Cf,{8}7x/2x,{16}1,1,8,8,{8}1-5[8:1],
,8/1,,7-3[8:1],,6/7,,5-1[8:1],
,4/5,,3-7[8:1],,2-6[8:1],,1-5[8:1],
,1/8,,7-3[8:1],,6/7,5,5-1[8:1],
,5/3>8[4:1],,8<5[4:1],,5>2[4:1],,2<5[8:7]*p6[8:5],
,,,,,,,,,E5,
{16},,,B2,,,,,{4}B8,
{16},B6,B5,B4,
E
