&title=トキラキメキ
&artist=ヒヅキミウ
&first=0
&des=小天使赛高
&lv_5=13+
&inote_4=
&inote_5=(133){4},{16},,,,,,,,,,,,7xh[8:1]/5xh[8:1],
,,8xh[8:1]/1xh[8:1],,,{8}4x/2x-6[8:1],,7,{4}8x<1[8:3],
{16},,,,,,,,4,5,,5,3,3,6,6,
4b,6,5,7,,3,4,2,{32},,B4,E5,{8}B5,7,6,
{4}5-1[8:1],{16}4/5,,,2,4-8[8:1],3,,,{8}3/4,2,
1-5[8:1],1,8-6[8:1],8,3,{16}3,5,,5,{8}3,
{4}2-5[8:1]*-6[8:1],2,{12}4,{24}4,5,,5,{12}3,{24}3,6,{48},,,,{16}5bx,
3,4,2,,6,5,7,,B5/E5/B4,,,{8}2,3,
{4}4-8[8:1],{16}5/4,,,7,5-1[8:1],6,,,{8}6/5,7,
8-4[8:1],8,1-3[8:1],1,{4}5-2[8:1]*-1[8:1],5,
{8}4/3,6/5,7/8,1/2,{16}3/4,3,,6,5,6,,,{4}4b/5h[4:3],
4,4,4>2[8:1],
6h[4:3],4,4,4>2[8:1],
7h[4:3],4,4,4>2[8:1],
8qq5[2:1],3,3,3,
5/4h[4:3],5,5,5<7[8:1],
3h[4:3],5,5,5<7[8:1],
2h[4:3],5,5,5<7[8:1],
1>3qq4[2:1],6,6,6,
6bv5[8:1],4-2[8:1],7v8-6[4:1],{8}4,4-2[8:1],
,5,5,{16}E5,C,{8}E1,B1/B8,3,2-4[8:1],
,5,7,{32}A3,D3,A2,D2,{8}A1,{32}A5,D6,A6,D7,{8}A7,5-1[8:1],
,3,2,6h[8:3],,4x-2[8:1],8x-4[8:1],4x,
{4}8x,{16}2h[4:1],{32},,,,A6,D7,{8}A7,A4/D4/A3,,6-8[8:1],
,1-3[8:1],,4-8[8:1]*-7[8:1],,4,{16},,4,5,
{4}4x-1[2:1],7,7,7,
{8}8/1,8,2/7,2,6/3,6,4/5,4,
4bxh[4:1]/5bxh[4:1],,,6bxh[4:1]/8bxh[4:1],,,{4}1bxh[4:1]/3bxh[4:1],
{8},5bx/4bx,{4}4bx/5bxpp6[4:1]*qq4[4:1],,,5b<3[4:1],
5/4,5<3[4:1],5/6,
{8}6-1[8:1],2-5[8:1],6,2,{2}8qq5[4:1],
{4}4qq3[16:3],5<8[8:1],1-6[8:1]*-4[8:1],1,
5pp6[16:3],4>1[8:1],8-3[8:1]*-5[8:1],8,
4b>6[4:1],5/4,4>6[4:1],4/3,
{8}3>8[8:1],7<4[8:1],3,7,{2}1pp4[4:1],
{4}7qq5[16:3],8>3[8:1],6-1[8:1]*-2[8:1],6,
{8}4,2/1,8/7,6/5,{16}1,8,5,7,1-5[8:1],8,{8}3,
{4}1b/5b<3[4:1],5/4,5<3[4:1],5/6,
{8}6<1[8:1],1>4[8:1],6,3,{2}1-5[8:1],
{4}8qq7[16:3],1>4[8:1],5-8[8:1]*-2[8:1],5,
1pp2[16:3],8<5[8:1],4-7[8:1]*-1[8:1],4,
4b>6[4:1],4/5,4>6[4:1],4/3,
{8}3>8[8:1],8<5[8:1],3,6,{2}8<5[8:1]*>3[8:1],
{4}7qq5[16:3],8>3[8:1],6-1[8:1]*-2[8:1],6,
{8}3/4,6/5,8/7,1/2,{16}2,2,4,4,5,5,7,7,
{4}2bxqq3[1:1],A6/A5/E6,,A6/A5/E6,
,A6/E6/A5,{16}2bx/4bx,,,1bx/8bx,,,{8}5bx/7bxpp6[8:9],
,,{4}A3/E4/A4,,E4/A4/A3,
,E4/A3/A4,{16}7/4,,,6,5,6,,,{4}4/7bxV58-4[1:1],
E2/A1/D2,{8},E3,{4}A3/A2/D3,
E2/A1/D2,E3/A3/D3/A2,{16}4bx/3bx,,,5bx/6bx,,,{8}8bx/1bx-3[8:1]*-7[8:1],
,,,5-7[8:1],3-5[8:1],5,3,8,
1/2,{16}4,3/4,,6,5,6,,1/8,,3,{8}3/4,6/5,
1b/8b,3/4,{16}6,5,,5,{8}7-4[8:1],3-8[8:1],7,3,
7,6/5,{16}2,4,,4,{8}1>4[8:1],5<8[8:1],1,5,
3h[8:1],{16}4,5h[8:1],,4,{8}2h[8:1],{16}4,6h[8:1],,4,{8}2,5/7,
{4}1h[8:1]/8h[8:1],{12}5b>2[8:1],3b>8[8:1],1b<6[8:1],{4}7b,C,
{8}6/5,7/8,{16}2,1,,8,{8}1-4[8:1],7,6/1,5,
3/4,2/1,{16}7,8,,1,{8}8-5[8:1],2,3/8,4,
6bx-2[8:1],6bx,,7bx-3[8:1],{4}7bx,{8}8bx-4[8:1],8bx,
,1bx,1bx,{16}3,2,3,2,{8}3bx-7[8:1],{4}3bx,
{8}4bx-8[8:1],4bx,,5bx-1[8:1],{4}5bx,{8}6bx-2[8:1],6bx,
,4bxqq2<8[2:1]*pp6<8[2:1],,,,,,,,4/5,
,7/8,1/2,4/5pp6[4:1]*qq4[4:1],,,,,{4}5b<3[4:1],
3qq7[4:1],5<3[4:1],
5,{8}6<1[8:1],1>4[8:1],6,3,{4}1>4[8:1]*<6[8:1],
,5pp6[16:3],5>1[8:1],8<5[8:1]*-4[8:1],
8,4qq3[16:3],4<8[8:1],1>4[8:1]*-5[8:1],
1,4b>6[4:1],6pp2[4:1],4>6[4:1],
4,{8}3>8[8:1],8<5[8:1],3,6,{4}8>3[8:1]*-4[8:1],
,2pp4[16:3],8<5[8:1],3-8[8:1]*-7[8:1],
3,{8}5,8/7,1/2,3/4,{16}1,8,5,7,
1-5[8:1],8,{8}3,{4}1b/5b<3[4:1],3qq7[4:1],5<3[4:1],
5,{8}6,4>1[8:1],7<4[8:1],4pp6[32:5]*qq2[32:5],,,,,{4}8qq7[16:3],
8>4[8:1],5-1[8:1]*<8[8:1],
5,1pp2[16:3],1<5[8:1],4>1[8:1]*-8[8:1],
4,4b>6[4:1],6pp2[4:1],4>6[4:1],
4,{8}3,5<8[8:1],2>5[8:1],5p8[32:5]*pp7[32:5],,,,,{4}2pp4[16:3],
8<5[8:1],3p6[8:1]*>8[8:1],
3,{16}3,4,{8}2,{16}6,5,{8}7,{4}4bw8[8:1],
4b,5xpp4[2:1]`3xqq4[2:1],{16},,,,,,,,,,,,1/8,
,,4/2,,,{8}5/7,{4}8/1pp1[4:1],
{16},,,,5b,3,4,1,,6,5,8,{32},,B5,E5,{8}B4,
2,3,{4}4-8[8:1],{16}5/4,,,7,1-5[8:1],8,,,{8}1/2,
3,4-8[8:1],4,5-7[8:1],5,2,{16}2,8,
,8,{8}1,{4}1-6[8:1]*-5[8:1],1,{12}4,{24}4,5,,5,
{12}3b,{24}3,6,,,{4}6-2[8:1],{8}6b/4b,{16}3,3,,B5/E5/B4,,,{8}2,
3,{4}4-8[8:1],{16}5/4,,,7,1-5[8:1],8,,,{8}1/2,
3,4-8[8:1],4,5-7[8:1],5,{4}1-5[8:1]*-3[8:1],
1,{16}8/7,,,2/1,,,{8}4/3,{16},5/6,,1-5[16:1],
8x,2x,7x,1x,
E
