&title=黒神クロニクル
&artist=葉月ゆら
&first=-0.28
&des=Yaegaki
&lv_5=13+
&inote_5=(124){8},,,{16}1,8,{4}2h[4:1],4h[4:1],
{16}6h[16:3],{8},{16}8h[16:3],{8},1,2h[4:1]/7h[4:1],{4},{16}5,4,
{8}6h[4:1],{4},{16}2,1,{8}2-6[8:1],8,7,7h[8:3],
,8-4[8:1],1,2h[8:1],,{16}2,4,3,5,4,6,
{8}5h[4:1],7,7,{16}8,1,{4}7h[4:1],5h[4:1],
{16}3h[16:3],{8},{16}1h[16:3],{8},8,7h[4:1]/2h[4:1],{4},{16}4,5,
{8}3h[4:1],{4},{16}7,8,{8}7-3[8:1],1,2,2h[8:3],
,1>4[8:1],8,1/7h[8:1],,{16}6,5,6,4,7,4,
7,3,8,3,8,2,{8}1,{16}3/8,{8},{16}7/2,{8},6/3,
{4}8-4[12:1]/1-5[12:1],8b/1b,{16}2/7h[16:3],{8},{16}8,{8}6,5/3,
{4}1q5[8:1],1/8,{16}5/6h[8:3],{8},{16}7,{8},8-4[8:1],
1h[4:1],{4},{16}3,4,{8}2h[8:1],1-5[8:1],8,{16}1,8h[16:3],
{4},7pp4[4:1],{16}4,{8},{16}3,{8},2-8[16:1],
{2}2-4[16:1],{16}7/3h[16:3],{8},{16}4,{8}2,1/6,
{4}2/7p3[8:1],{8}7/3,1,{16}4/8pp4[4:1],{8},{16}5,{8},6-8[16:1],
6-4[16:1],{4},{16}1,2,8h[16:3],{8},{16}6h[16:3],{8},7,
{4}7-5[12:1]*-3[12:1],7,{16}2/4,{8},{16}6/5,{8},7p4[4:1]/8pp4[4:1],
{2}8/7,{8}6h[4:1]/2h[4:1],{4},{16}8,1,
{8}7,6,5-1[8:1],4,{4}3h[4:1],8h[4:1],
{8}1,2,3,4/5,6h[4:1]/3h[4:1],{4},{16}7,1,
{4}8-4[8:1],8/2-6[8:1],{8}2/1,8,{16}7,5,{8}6,
{16}2,1,3,8,{4}1w5[8:1],{8}1,{4},{16}8,1,
{8}8h[8:1],2h[4:1],1,7,6/2,{16}3,4,{8}3,{16}5,4,
{8}5,{16}6,5,6,4,7,3,{8}8h[4:1],{4},{16}3,1,
{8}2h[4:1],{4},{8}8,{16}7,{8},{16}6h[16:3],{8},4,
{16}3/5,{8},{16}6/1,{8},7/3,{2}2pp5[8:3]/6pp1[8:3],
{4},7h[8:1]/2h[8:1],{24}1,8,1,8,1,8,1,8,1,8,{12}1,
{4}7b-4[8:1]/2b-5[8:1],2/7,{8}3/6v4[8:1],4V61[16:3],6,{16}3,3h[16:3],
{4},{8}3>8[8:1],8<5[8:1],{16}3,{8},{16}4pp5[16:3],{8},5>1[8:1],
7,{24}1,8,7,{8}6,5,6b/2b,{16}5V31[8:1],4,{8}6h[8:1],5,
7b,{16}1<5[8:1],8,{8}2h[8:1],1,3b,{16}5,4,{8}6,7/3,
{16}2,1,4,5,8,7,{8}2,6/3v5[8:1],5V38[16:3],3,{16}6,6h[16:3],
{4},{8}6<1[8:1],1>4[8:1],{16}6,{8},{16}5qq4[16:3],{8},4<8[8:1],
2,{24}8,1,2,{8}3,4,3b/7b,{16}4V68[8:1],5,{8}3h[8:1],4,
2b,{16}8>4[8:1],1,{8}7h[8:1],8,6,{16}4,5,{8}3,6/2,
{16}7,1,8,4,5,2,{8}1,{4}8/4h[8:7],8,
8,{8}8,8,{48}7,6,5,4/2,{16},{48},,{16}1/8,{8},7/2,
{16}3/5,{8},{16}8/6,{8},1/2,8b/3b,7/4,{16}6,3,5,2,
{4}4h[4:1],1h[4:1],{8}3h[8:3],{4},{16}8,1,
{4}2-6[8:1]*-4[8:1],2,7h[8:1]/3h[8:1],{8}6/1-5[8:1],2,
1/7-3[8:1],8,7/2<4[16:5],2,2/8,{4},{16}8,7,
{4}6-4[8:1]*-8[8:1],6,{8}8/1,2/7,{16}5,3,6,4,
{4}7h[4:1],6h[4:1],{8}5h[8:3],{4},{16}2,3,
{4}4v1[8:1]*-6[8:1],4,{32}3,4,{16}5h[16:5],,8,{8},8,
{32}7,6,{16}5h[16:5],,1,{8},1,{32}1b,2/8,7/3,6/4,{8}5qq1[8:3]*pp1[8:3],{4},,{8},{16}2,
8,7/3,{8},{16}5/1,{8},4/3,
{2}5h[4:1]/7h[4:1],{8}4/6h[8:3],5,7,{16}8-4[8:1],1h[16:3],
{4},{8}1,2,{16}6/3h[8:3],{8},{16}4,{8},2,
{16}1,8,7,6,{8}5/1,2,3/6,3,5/2,2,
3/6,6,4/7,7,3/8,3,8/4,7,
{16}5,6,4,5,3,4,2,1,{8}2-5[12:1],8,2/7-3[12:1],6,
7/1>4[12:1],8,1/5<8[12:1],6,5/2-6[12:1],3,2/8-4[12:1],7,
8/3-7[12:1],2,3/7,{16}6,5,{8}2/4,{16}8>4[8:1],7,{8},8,
{16}7V53[8:1],{8},{16}7,{8},1,{16}2/4,{8},{16}5/7,{8},6/3,
{4}2/1v6[8:1]*v4[8:1],1b,{8}7/3p5[8:1],5>8[8:1],3,{16}7,7h[16:3],
{4},{8}6<1[8:1],1>4[8:1],{16}6,{8},{16}5qq4[16:3],{8},4<8[8:1],
8q5[8:1],{24}8,1,2,{8}3,4,6b/2b,{16}3V17[8:1],4,{8}2h[8:1],3,
4b,{16}7<3[8:1],8,{8}6h[8:1],7,8b,{16}2,1,{8}3,4/7,
{16}1,8,3,5,4,7,{8}8,3/6q4[8:1],4<8[8:1],6,{16}2,2h[16:3],
{4},{8}3>8[8:1],8<5[8:1],{16}3,{8},{16}4pp5[16:3],{8},5>1[8:1],
1p4[8:1],{24}1,8,7,{8}6,5,3b/7b,{16}6V82[8:1],5,{8}7h[8:1],6,
5b,{16}2>6[8:1],1,{8}3h[8:1],2,1b,{16}7,8,{8}6,5/1,
{16}3,4,2,8,1,6,{8}4,{4}1/5h[8:7],1,
1,{8}1,1,{32}2/6,3/7,{16}4/8,,1/5,{8},8/4,
{16}7/3,{8},{16}1/5,{8},4/2,{2}3bqq5[2:1]/7bqq1[2:1],
{4},{8},{16}3,4,{4}3-1[12:1],3/5V71[4:1],
{16}1p5[16:3],{8},{16}5<1[4:1],{8},3,2h[4:1],{4},{16}1,8,
{8}2h[4:1],{4},{16}7,3,{8}8h[2:1],2,1,7,
6,5/7,6/4,3/5,7/1,{16}2,8,1,6,5,7,
3,4,2,1,{8}3,{16}8,1,{4}7-5[12:1],7/1V35[4:1],
{16}5p1[16:3],{8},{16}1>5[4:1],{8},8,8h[4:1],{4},{16}7,5,
{8}6h[4:1],{4},{16}3,7,{8}2h[2:1],8,1,3,
4,3/5,4/6,5/7,8/4,{16}6,5,7,2,1,4,
5,8,7,3,4,2,{8}5,{16}6/1,{8},{16}2/5,{8},1/7,
{4}4b/8b-4[8:1],8bw4[8:1],{2}8b>7[4:3]*<1[4:3],
