&title=花に雨を、君に歌を
&artist=ユリイ・カノン/GUMI
&first=0
&des=辰韵
&lv_5=13+
&inote_5=(240){1},{16},,,,,,,,,,,,,,,{384},,,,,,,,,,,,,,,,,,,,
{8}6h[8:6],,,5,,,3,3,4h[8:3],,,2h[4:1],,1,2,,7h[8:6],,,8,,,2q5[8:5],1,2,,,,7,,,,
4/8h[8:6],,3,,2,,1,,5/1h[8:6],,6,,7,,8,,2-6[8:2],2,,5-8[8:2],5,,1,1,2-5[8:2]/6-1[8:2],,,,,,,,(120){16}
2h[16:2]/4,,1,2,,8,1,,7h[16:2]/5,,8,7,,1,8,,
3h[16:2]/1,,4,3,,5,4,,7h[8:2]/8,,5,,2h[8:1],,1,,
7h[16:2]/5,,8,7,,1,8,,3h[16:2]/4,,1,3,,8,1,,
6h[16:2]/8,,5,6,,4,5,,3h[8:2]/1,,4,,6h[8:1],,8,,
2h[16:2]/4,,3,2,,7,8,,7h[16:2]/5,,6,7,,2,1,,
3h[16:2]/1,,4,3,,7,5,,6h[8:2]/4,,8,,4h[8:1],,3,,
7h[16:2]/5,,1,8,,2,1,,2h[16:2]/4,,8,2,,7,8,,
6h[16:2]/8,,4,6,,3,5,,2h[8:2]/4,,1,,5h[8:1],,7,6,
(240){8}1>8[4:5],,,,,,,,,,,,,,,,6h[8:3],,,7h[8:3],,,8h[8:2],,1-5[16:3],,,,,,,,
(240){8}
3>5[8:10],,,,4,,,,4,,,,4,,,,
5<3[8:10],,,,4,,,,4,,,,4,,,,
4>6[4:5],,,,5,,,,5,,,,5,,,,
5<8[8:6],,,,2,,,,2,,,3,,4,4,,
(120){16}
5/3h[8:2],,5,,5,,5,,4/7h[8:1],,4,,4/6h[8:1],,4,,
5/3h[8:4],,5,,5,,5,,5,,5,,5,,5,,
4/6h[8:2],,4,,4,,4,,5/2h[8:1],,5,,5/3h[8:1],,5,,
4/6h[8:2],,4,,4,,4,,3/5h[16:2],,3,,6/4h[16:2],,6,,
(240){8}
4h[8:2],,5,4,,7^4[16:4],5,,3,,2,2h[8:2],,4,1,1,
5^8[8:2],,2,2h[8:3],,1,1h[8:2],,3h[8:2],,5h[8:2],,7h[8:2],,8h[8:2],,
1h[8:2],,7,1,,6^1[16:4],2,,3,,4,4h[8:2],,8,3,3,
7-4[16:3],,2,2h[8:3],,5,5h[8:2],,3h[8:2],,5h[8:2],,6h[8:2],,7h[8:2],,
4h[8:2],,6,5,,7-3[16:4],3,,2,,1,1h[8:3],,,5,5h[8:1],
1^4[8:2],,6,6h[8:3],,,5,5,7/4,,,,3,4,3,4,2h[8:4]/5h[8:4],,,,,,,,4/6h[8:6],,,,,,5h[8:2],,
(240)
{8}8b-3[16:3],,,2b-7[16:3],,,4b-8[16:3],,8b-3[16:3]*-5[16:3],,,,,,,,
7V51[8:2],,2,2-5[16:3],,8,8V26[16:5],,3h[8:2],,,,2,8,1-5[16:3],,
1/6V48[8:2],,2,2-5[16:3],,7,7V15[16:5],,3h[8:2],,,,1,6,2-5[16:3],,
2/8,,7V51[16:4],3/7,,,2,,1^6[16:3],,5,,8^3[16:3],,4,,1-5[16:3],,6-8[8:1],6,,,3-1[8:1],,
7v4[16:3],,3,,1,1,6h[8:2],,
2V48[8:2],,7,7-4[16:3],,1,1V73[16:5],,6h[8:2],,,,7,1,8-4[16:3],,
8/3V51[8:2],,7,7-4[16:3],,2,2V84[16:5],,6h[8:2],,,,8,3,7-4[16:3],,
7/1,,2V48[16:4],6/2,,,7,,8^3[16:3],,4,,1^6[16:3],,5,,8-4[16:3],,3-1[8:1],3,,,5w1[16:3],,
5,,,,8,8,2,2,
7V15[8:2],,3,3-7[16:3],,6,6<5[8:3],,1h[8:2],,,,1,6,8-3[16:3],,
7/8V26[8:2],,5,5-2[16:3],,7,7>6[8:3],,2h[8:2],,,,1,6,3-8[16:3],,
3/8,,7-1[16:2],1-5[16:3]/7,,,2,,1V75[16:4],,5,,8V24[16:4],,4,,1-5[16:3],,6V82[8:2],6,,,3^8[16:3],,
7v4[16:3],,2,,1,1,6h[8:2],,
2V84[8:2],,6,6-2[16:3],,3,3>4[8:3],,8h[8:2],,,,8,3,1-6[16:3],,
2/1V73[8:2],,4,4-7[16:3],,2,2<3[8:3],,7h[8:2],,,,8,3,6-1[16:3],,
6/1,,2-8[16:2],8-4[16:3]/2,,,7,,8V24[16:4],,4,,1V75[16:4],,5,,8-4[16:3],,3V17[8:2],3,,,6,,
6-8[8:1],,1-5[8:1],,6-4[16:2],,3-8[16:3],,5V71[16:4],,1-5[16:3],1,,
3-1[16:2],3,,5V71[16:4],,1-5[16:3],1,,
3-1[16:2],3,,5V71[16:4],,1-5[16:3],1,,
3,3-1[16:2]*-1[16:2],,7
,,6,,1-5[16:3],,5,,7V13[16:4],,3-7[16:3],3,,
4-1[16:3],4,,7V13[16:4],,3-7[16:3],3,,
4-1[16:3],4,,7V13[16:4],,3-7[16:3],3,,
4,4-1[16:3]*-1[16:3],,8
,,7,,1,1,6,6,
4V28[16:4],,8-4[16:3],8,,
6-8[16:2],6,,4V28[16:4],,8-4[16:3],8,,
6-8[16:2],6,,4V28[16:4],,8-4[16:3],8,,
6,6-8[16:2]*-8[16:2],,2
,,3,,8-4[16:3],,4,,
2V86[16:4],,6-2[16:3],6,,4-7[16:3],4,,
2V86[16:4],,6-2[16:3],6,,4-7[16:3],4,,
2V86[16:4],,6-2[16:3],6,,
4,4-7[16:3]*-7[16:3],,
2-5[16:3],,,,8,8,7/3,7/3,6/2-6[16:3],,5,5,,4,4,,
1-5[16:3],,6,6,,7,7,,
8-4[16:3],,3,3,,2,2,,
1h[8:2],,7h[8:2],,5h[8:2],,3,,1-5[16:4]/4h[8:4],,,,,,7,5,8-3[16:4]/4h[8:4],,,,,,
1,5,2-6[16:3]/6,,,,8-4[16:3],,,,1-7[16:2],,,,8b/1b,,,,
{12}8,7,6,2,3,4,1,2,3,7,6,5,8,7,6,2,3,4,1,2,3,7,6,5,
{8}4h[8:2]/7-4[8:1],,,,5h[8:2]/1-5[8:1],,,,3h[8:2]/7-3[8:1],,,,
2v5[16:3],,6,,7-3[16:3],,3,,2,,2,4,1-5[16:3]/5,,5,,6,,6,5,
4/8p3[16:3],,4,,2p5[16:3],,5,,8p1[16:4],,1p5[16:3],,5p1[16:3],,2w6[16:3],,2,,
