&title=風呂入るプロファイル
&artist=もちうつね
&first=-1.148
&des=こゆき
&lv_5=14
&inote_5=(190)
{8},
,,,,,,,,,,,,,,,,,,,,,8b,,
{8}6h[2:1],8,1,2,3h[8:2],4,5,6,
7qq4[8:2],1,2,3,,,3,4,
{8}5h[4:1],,7,7p4[8:2],
,8,8,,
{8}1h[4:1],,3,3,
{16}1,,2,4,3,,,,
{8}3h[2:1],1,8,7,6h[4:1],5,4,3,
2pp5[8:2],8,7,6,,,6,5,
{8}4h[4:1],,2,2q5[4:1],
,1,1,,
{8}8h[4:1],,6,6,
{16}8,,7,5,6h[8:1],,,,
{8}7h[2:1],8,1,2,3h[4:1],4,5,6,
7p4[4:1],1,2,3,,,3,4,
{8}5h[4:1],,7,7qq4[4:1],
,8,8,,
{8}1h[4:1],,3,3,
{16}1,3,2,4,3,,3,,
{8}2h[2:1],1,8,7,6h[4:1],5,4,3,
2q5[4:1],8,7,6,,,6,5,
{8}4h[4:1],,2,2pp5[4:1],
,1,1,,
{8}8h[4:1],,6,6,
{16}8,6,7,5,6b,,,,
{4},7h[4:1],8h[4:1],1h[4:1],2,3h[4:1],{8}4,5,6,7,8h[2:1],,{4}1,2,3,4,
{16}6,4,5,3,6,4,5,3,6h[8:2],,,,
{4},7h[4:3],1,,{4},8z4[8:1],5s1[8:1],,
{16}7,,5,6,3,,5,,
2,,4,3,6,,4,,
6,4,5,3,6,4,5,3,6,4,5,3,{24}6,5,4,3b,,,
{16}6h[8:1],,7h[8:1],,8h[8:1],,1h[8:1],,2h[8:1],,3h[8:1],,4,4,
7h[8:1],,8h[8:1],,1h[8:1],,2h[8:1],,3h[8:1],,4h[8:1],,5h[8:1],,6h[8:1],,7,,
2,3,4,5,1,,{8}73,62,51,84,{16}73,84,51,62,73,84,51,62,7qq3[1:5]/3,,,,,,,,,,,,,,,,,,,,,,1b,,,,
{1},,,,
{1}2s6[4:6],,
{1}7qq4[4:2],
{8}3h[4:3],,2,1h[8:1],,{16}8,8,{8}8b,,
{16}4/7,,6,5,7,,3,,2/5,,3,4,2,,6,,
4/7,,6,5,8,,3,,1,,6,5,8,,3/6,,
2/5,,3,4,2,,6,,4/7,,6,5,7,,2,,
{4}1>8[4:1],8q1[4:1],,,
{16}5/2,,3,4,2,,6,,7/4,,6,5,7,,3,,
5/2,,3,4,1,,6,,8,,3,4,1,,6/3,,
7/4,,6,5,7,,3,,5/2,,3,4,2,,7,,
{4}8<1[4:1],1p8[4:1],8w4[4:7],,
,,,,,,,8b,
{8}7^4[8:1],8,1,2^7[8:1],
3,4,5^2[8:1],6,
7,8-5[8:1],1,2h[8:1],
,,8,,
{8}2,2,2h[8:1],,4/3,4/3qq8[8:4],5,53,,
{16},,,,,,7,5,6,4,5,3,4,,
{8}2^5[8:1],1,8,7^2[8:1],
6,5,4^7[8:1],3,
2,1-4[8:1],8,7h[8:1],
,,1,1,
{8}7,7,7h[8:1],,5/6,5/6pp1[8:4],4,46,,
{16},,,,,,2,4,3,5,4,6,5,,
{8}7^4[8:1],8,71,
2^7[8:1],3,24,
5^2[8:1],6,
57,8^5[8:1],1,8/2h[8:1],
,,8,8,
{8}2,2,2h[8:1],,4/3,4/3qq8[8:4],5,53,,
{16},,8,,,,7,5,6,4,5,3,4,,
{8}2^5[8:1],1,28,
7^2[8:1],6,75,
4^7[8:1],3,
42,1^4[8:1],8,1/7h[8:1],
,,1,1,
{8}7,7,7h[8:1],,5/6,5/6pp1[8:4],4,46,,
{16},,1,,,,2,4,3,5,4,6,5h[4:1],,
{8},,1h[8:1],2h[8:1],3h[8:1],4h[8:1],5h[8:1],6h[8:1],7h[8:1],8h[8:1],1h[8:1],2h[8:1],3h[8:1],4h[8:1],5h[8:1],6h[8:1],7h[2:1],8h,1h,2h,3h,4h,5h,6h,2h[2:1],1h,8h,7h,6h[8:1],,3h[4:1],,
{8},,8h[8:1],7h[8:1],6h[8:1],5h[8:1],4h[8:1],3h[8:1],2h[8:1],1h[8:1],8h[8:1],7h[8:1],6h[8:1],5h[8:1],4h[8:1],3h[8:1],2h[2:1],1h,8h,7h,6h,5h,4h,3h,7h[2:1],8h,1h,2h,3h[4:1],,,,
{16}7,,5,6,3,,5,,
2,,4,3,6,,3,,6,5,6,,3,4,3,,6,4,5,3,6,4,5,,
{16}2h,,4h,3h,6h,,4h,,
7h,,5h,6h,3h,,6h,,3h,4h,3h,,6h,5h,6h,,3h,5h,4h,6h,3h,5h,4h,,
{16}6,,8,7,2,,8,,
3,,1,2,7,,1,,
7,1,8,2,7,1,8,2,7,1,8,2,{24}7,,,{16}2,,
{16}3h,,1h,2h,7h,,1h,,
6h,,8h,7h,2h,,8h,,
{8}2h/6h,3h/7h,4h/8h,1h/5h,{16}2h/6h,1h/5h,4h/8h,3h/7h,2h/6h,1h/5h,4h/8h,3h/7h,2bpp6[1:7]*p7[1:3]/6,,
{8},,,,,,,,,,,,,,,,,,,,,,,,,,,,,,,,,,,,,,,,,,,,,,,,,,,,,,,,,,,,,1b,,
{8}7^4[8:1],8,1,2^7[8:1],
3,4,5^2[8:1],6,
7,8-5[8:1],1,2h[8:1],
,,8,8,
{16}2,3,4,5,6,7,8,1,26,5,4,3,2,1,8,7,62,3,4,5,6,7,8,1,2w6[8:1],,,,2,,,,
{8}2^5[8:1],1,8,7^2[8:1],
6,5,4^7[8:1],3,
2,1-4[8:1],8,7h[8:1],
,,1,1,
{16}7,6,5,4,3,2,1,8,73,4,5,6,7,8,1,2,37,6,5,4,3,2,1,8,7w3[8:1],,3,,7,,,,
{8}7^4[8:1],8,71,
2^7[8:1],3,24,
5^2[8:1],6,
57,8^5[8:1],1,8/2h[8:1],
,,8,,
{16}6,5,6,5,6,4,6,4,6,3,6,3,6,2,6,2,6,1,6,1,6,8,6,8,{24}7,6,5,4,3,2,{12}1,,,
{8}2^5[8:1],1,28,
7^2[8:1],6,75,
4^7[8:1],3,
42,1^4[8:1],8,1/7h[8:1],
,,1,1,
{8}7,7,7h[8:1],,5/6,5/6pp2[8:3],4,46,,
{16},,1,,,,{24}8,1,8,1,8,1,
8,1,8,,,,
{2}6pp4[4:7]*z2[4:15],,,,,,,,,8b,,,,,,,,,
