&title=Hemisphere
&artist=ARForest
&first=0.6
&lv_5=14
&des=WYBXXJ
&inote_5=
(193){4}1b/5b,{8},2,,3,,4,
,3,,4,,1,,2,
,,{4}2,{8},3,,4,
,3,,4,,1,4,2,
3/8,,,7,,6,,5,
,6,,5,,8,,7,
,,{4}7,{8},6,,5,
,6,,5,,8,7,6,
5b/1b,,,2/7,,3/6,,4/5,
,3/6,,4/5,,1/8,,2/7,
,,{4}2/7,{8},3/6,,4/5,
,3/6,,4/5,,1/8,4/5,2/7,
2/7,,,7/3,,6/2,,5/1,
,6/2,,5/1,,8/4,,7/3,
,,{4}7/3,{8},6/2,,5/1,
,6/2,,5/1,,4/5,3/6,7/2,
{1}Cf,
{8},,,,,,,,1/7bh[1:2],
,,2,,,{4}4,
{8},3,,,{4}1,2,
{8}3,,,2,,,{4}4h[8:9]/6q8[8:5],
{8},,,,,,,8,
8/2bh[1:2],,,7,,,{4}5,
{8},6,,,{4}8,7,
{8}6,,,7,,,{4}8h[4:5]/5qq2[4:3],
{8},,,,,,,,2bh[1:2],
,,7,,,{4}5,
{8},6,,,{4}8,7,
{8}6,,,7,,,{4}5h[8:9]/4qq1[8:5],
{8},,,,,,,1,
1/7bh[1:2],,,2,,,{4}4,
{8},3,,,{4}1,2,
{8}3,,,2,,,{4}1h[4:1],
{16}8b,7x,6x,5x,4x,3x,2x,1x,8x,7x,6x,5x,3x,4x,3x,4x,
{8}1b,2,3/7,{16}6,5,,3,{8}4,2/5,3,
4/8,7,6/2,{16}3,4,,6,{8}5,4/7,8,
1/2,3,4/5,{16}7,5,,2,{8}4,2/7,1,
8/7,6,5/4,{16}2,4,,7,{8}5,2/1,3/8,
4/7,6,5/2,{16}3,4,,7,{8}8,6/1,1,
5/2,3,4/7,{16}6,5,,2,{8}1,3/8,7,
6/4,5,4/2,{16}1,8,,4,{8}5,3/6,7,
8/4,3/7,6/2,{16}1,2,{8}3/5b,{16}8,7,{32}6/2b,3x,4x,5x,6x,7x,8x,1x,
{16}2,6,2,6,2,6,3x,7,3,7,4x,8,4,8,3x,7,
3,7,2x,6,1x,5,2x,6,3x,7,4x,8,3x,7,2x,6,
1x,5,1,5,1,5,2x,6,2,6,3x,7,3,7,4x,8,
4,8,3x,7,3,7,1b,5,1,5,2x,6,3x,7,4x,8,
5x,1,5,1,5,1,4x,8,4,8,3x,7,3,7,4x,8,
4,8,3x,7,2x,6,1x,5,8x,4,1x,5,2x,6,2,6,
3x,7,3,7,3,7,1b,5,1,5,2x,6,3x,7,4x,8,
3x,7,2x,6,{8}1b,{32}2/8h[8:1],3,4,5,{8}6,{32}8/1h[8:1],7,6,5,{8}4,2b,
3h,{16}6h,5h,{8}6h,7h,8h,1h,2h,3h,
{16},,3h,4h,{8}3h,2h,1h,8h,7h,{16}6h,5h,
{8}6h,{16}3h,4h,{8}3h,2h,1h,8h,7h,6h,
{16},,6h,5h,{8}6h,7h,8h,{32}1h,2h,3h,4h,{8}5h,{16}7h,8h,
{8}7h,{16}2h,1h,{8}2h,3h,4h,5h,6h,7h,
{16},,7h,8h,{8}7h,6h,5h,4h,3h,{16}2h,1h,
{8}2h,{16}6h,5h,{8}6h,7h,8h,1h,2h,3h,
{16},,5h,4h,{8}5h,{16}4h,5h,{32}4h,3h,2h,1h,8h,7h,6h,5h,{8}4h,{16}6h,5h,
{8}6h,{16}3h,4h,{8}3h,2h,5b/1h,8h,7h,6h,
{16},,6h,5h,{8}6h,7h,4b/8h,1h,2h,{16}3h,4h,
{8}3h,{16}6h,5h,{8}6h,7h,4b/8h,1h,2h,3h,
{16},,3h,4h,{8}3h,2h,8b/1h,{32}8h,7h,6h,5h,{8}4h,{16}2h,1h,
{8}2h,{16}7h,8h,{8}7h,6h,1b/5h,4h,3h,2h,
{16},,2h,1h,{8}2h,3h,8b/4h,5h,6h,{16}7h,8h,
{8}7h,{16}3h,4h,{8}3h,2h,5b/1h,8h,7h,6h,
{16},,3h,6h,{8}3h,{16}5h,4h,{32}6h,7h,8h,1h,2h,3h,4h,5h,2xh/6h,1h,8h,7h,6h,5h,4h,3h,
{1}2bh,
1bh,
{4}3bh,,,8xh,
7xh,6xh,5xh,4xh,
,,,,{1}2bh,
{4},,,8,
7,6,5,{16}1x,2x,3x,4x,
6b,5,6,5,{8}6,{16}2,1,2,1,{8}2,{16}7,8,7,8,
7,6,5,4,1,2,3,4,6,7,8,1,4,3,2,1,
7,6,7,6,{8}7,{16}2,3,2,3,{8}2,{16}8,1,8,1,
8,7,6,5,3,2,1,8,4,5,6,7,1,2,3,4,
6b,5,6,7,{8}6,{16}2,1,2,3,{8}2,{16}8,4,8,4,
8,7,6,5,4/8,3,2,1,8/4,3,2,1,5,6,7,8,
3,4,3,2,{8}3,{16}7,8,7,6,{8}7,{16}2,1,2,1,
{8}2b,{32}8,7,6,5,{8}1b,{32}8,7,6,5,{8}2b,{32}8,7,6,5,{8}3b,{32}8,7,6,5,
{16}3b,4,2,4,{8}1,{16}7,8,6,8,{8}5,{16}1,8,1,8,
2,1,3,8,4,7,5,6,3,4,2,5,1,6,8,7,
2,4,3,5,4,6,5,7,3,1,2,8,1,7,8,6,
1,5,2,6,3,7,4,8,3,2,1,8,5,6,7,8,
2b,1,3,8,2,1,4,7,{8}3>8[8:1],8-4[8:1],3,6,
{16}7b,5,7,4,6,3,7,2,{8}8b,{32}2,3,4,5,{8}6,{32}8,7,6,5,
{16}4/1,2,3,4,8,7,6,5,2,6,3,7,1,5,3,7,
2,6,1,5,3,7,4,8,2,6,{32}1x>6[32:5]/5x<2[32:5],2x>7[32:5]/6x<3[32:5],3x<8[32:5]/7x>4[32:5],4x<1[32:5]/8x>5[32:5],,,,,{8}1xp7[8:31]/5xp3[8:31],
E
