&title=ring-a-ring
&artist=milka
&first=0.03
&des=Ylng vs カガリア
&des_5=Ylng vs カガリア
&lv_5=13+
&inote_5=(180)
{1},
{8}7,5,6h[4:1],,4,3h[4:1]/5,,8-4[8:1],
{8},8,,6,47,,,,
{8}2,4,3h[4:1],,5,6h[4:1]/4,,1-5[8:1],
{8},1,,3,52,,,,
{8}6,5,7h[4:1],,3,2h[4:1]/5,,7^4[8:1],
{8},7,,3,42,,,,
{8}3,4,2h[4:1],,6,7h[4:1]/4,,2<4[2:1],
{8},,6h[4:3],,,,,,
{8}3-8[8:1],3,,5,6-1[8:1],6,,2-5[8:1],
{8},2/8>6[2:1],,8,4q8[8:1],,,,
{8}1-5[8:1],5-2[8:1],1,7,6-1[8:1],6,2-6[8:1],2,
{8},8-4[8:1],,8,5^2[4:1],,5b,6b,
{8}7bqq4[8:3],,,,8,1^4[8:1],,1^6[8:1],
{8},1,,3,2pp5[8:3]/5,,,,
{8}6-1[8:1],6,3-8[8:1],3,,7<1[4:3],,,
{8}2h[2:1],,,,,,,,
{8}8,,,,8,,,,
{8}1,,,,1,,,,
{8}7-4[8:1],,7/3-7[8:1],2,7-5[8:1]/3,5-1[8:1],,8w4[8:1],
{8},8,,1/7<2[4:1],,8,7,6,
{8}5-1[8:1],,56,7,8-4[8:1],8,,2-5[8:1],
{8},25,,6,7>5[4:1],,,,
{8}2-5[8:1],,72,8,1-4[8:1],,1,8-3[8:1],
{8},7-4[8:1]/8,,17,,2-6[8:1],2,5-2[8:1],
{8}5,,8,1,2^5[8:1],,27,8>6[4:1],
{8},8-4[8:1],,8>6[4:1],,,,,
{8}2-5[8:1],,2/6-2[8:1],7,2-4[8:1]/6,4-8[8:1],,1w5[8:1],
{8},1,,8/2>7[4:1],,1,2,3,
{8}4-8[8:1],,34,2,1-5[8:1],1,6-1[8:1],6,
{8},8>5[4:1],,78,6<4[4:1],,,2,
{8}1-5[8:1],,61,7,8>6[4:1],,,8-4[8:1],
{8},8^5[8:1],,8^3[8:1],,8,7,6,
{8}5-1[8:1],,65,7,8-4[8:1],8,,2<4[4:1],
{2},{16}6,,,7,,,8,,
{16}1b>8[4:9],,,,,,,,8,,,7,,,6,,
{16}5h[4:1],,,,,,,,3h[4:1],,,,,,,,
{16}1s5[2:1],,,,,,,,,,,,8-4[8:1],,,,
{16}8,,,,,,,,7h[8:1],,,8h[8:1]/6h[8:1],,,51,,
{16}4/3-8[8:1],,,,,,,,2h[8:1],,,1h[8:1]/3h[8:1],,,48,,
{16}5/6-1[8:1],,,,,,,,7h[8:1],,,4h[8:1]/3h[8:1],,,26,,
{16}8/7>6[2:1],,,,,,,,,,,,4-8[8:1],,,,
{16}47,,,,,,,,1h[8:1],,,4h[8:1]/2h[8:1],,,56,,
{16}7<2[8:5]/4,,,,,,8,,,,,,1,,,,
{16}2>7[8:5],,,,,,1,,,,,,8-4[8:1],,,,
{16}81,,,,,,35,,2/7-4[8:1],,,,1pp4[2:1]/7,,,,
{16}81,,,,,,,,5h[8:1],,,6h[8:1]/4h[8:1],,,27,,
{16}8>6[1:1],,,,,,,,7,,,,,,,,
{16}7-3[8:1],,,,,,1-5[8:1],,,,,,8,,,,
{16}2<4[4:1]/6,,,,,,,,7,,,,8,,,,
{16}26,,35,,,,47,,8,1,8,1,8,1,8,1,
{8}2b-6[8:1]/7b,,2/7-3[8:1],,1,2<4[4:1],,2,
{8},8,,7,1/6<4[4:1],,,,
{8}1-5[8:1],,1^6[8:1],,1^4[8:1],,1,7-2[8:1],
{8},7,6,5,4w8[8:1],,4,,
{8}2-5[8:1]/6-1[8:1],,26,,4-8[8:1]/8,,47,6-1[8:1],
{8},65,,27,3-1[8:1]*-6[8:1]/6,,3,,
{8}8^3[8:1]/7,,68,5-1[8:1],,2-4[8:1]/5,,2/8-6[8:1],
{8},85,4,3,2b<4[4:1],,,,
{8}8b-4[8:1],,8/2-6[8:1],,2/7-3[8:1],,17,2-6[8:1],
{8},2/8-4[8:1],,18,2w6[8:1],,2,,
{8}4-1[8:1]/8,,7-4[8:1]/4,,87,1-5[8:1],,81,
{8},7,64,53,2v7[8:1]/4v7[8:1],,24,,
{8}5b/1b<3[4:1],,,,7,6-1[8:1],,6/2-5[8:1],
{8},2/7-4[8:1],,7/3-8[8:1],,36,5w1[8:1],,
{8}5,,,37,1-4[8:1]/5-8[8:1],,15,,
{8},7-4[8:1],,37,2-5[8:1],,21,,
{8}8bw4[8:1],,8,,2-5[8:1]/6,,27,8-4[8:1],
{8},1-5[8:1]/8,,17,6-1[8:1],,4-8[8:1]/6,,
{8}4/7-5[8:1],,7/1-3[8:1],,8-4[8:1]/1,,38,2^5[8:1],
{8},25,6,7,8-4[8:1],,81,2,
{8}3-1[8:1],,3/7-5[8:1],,7/8-4[8:1],,78,6-8[8:1],
{8},6/4-2[8:1],,45,6-1[8:1],,63,,
{8}2-5[8:1],,26,7-4[8:1],,78,,1^4[8:1],
{8},14,5,6,7,,8bw4[8:1],,
{8}8b,,2-6[8:1]/6,,7-3[8:1]/2,,78,1-5[8:1],
{8},1/8-4[8:1],,81,2-6[8:1],,28,,
{8}7-3[8:1],,7/2-6[8:1],,12,8-4[8:1],,1>5[8:1]/8,
{8},16,7,8,1w5[8:1],,1,,
{8}3b-8[8:1]/7b-4[8:1],,,,,15,26,3p7[8:1]/7p3[8:1],
{8},3<7[8:1]/7>3[8:1],,3p7[8:1]/7p3[8:1],,37,,,
{8}15,,,3p7[8:1]/7p3[8:1],,3<7[8:1]/7>3[8:1],,37,
{8},,,,15,,,,
{8}1>5[8:1],,16,7,8,1w5[8:1],,1,
{8},3-8[8:1]/7-4[8:1],,37,,15,26,37,
{8}4/8-4[8:1],,18,2,3,4w8[8:1],,4,
{8},26,,26,48,,,,
{8}7-5[8:1],7,2,3-1[8:1],3,,5,6w2[8:1],
{8},6,,4/8-4[8:1],,18,2,3,
{8}45,56,67,7/8-4[8:1],,18,2,3,
{8},,,15,,,,,
{8}1-5[8:1],,18,7,6,5-1[8:1],,2-5[8:1]/5,
{8},2/8-4[8:1],,8/1-5[8:1],,81,7,6,
{8}45,34,23,12,8/1-5[8:1],,18,7w3[8:1],
{8},7,,15,37,,,,
{8}2-4[8:1],2,5,6-8[8:1],6,,1,2w6[8:1],
{8},2,,4/8-4[8:1],,81,2,3,
{8}45,56,67,78,1b/8b,1b-4[8:1]/8b-5[8:1],,18,
{8},27,,,{16}24,,,57,,,18,,
{16}27,,,,,,,,,,,,,,,,
E
