&title=繁花艳丽 终或飘零
&artist=幽闭星光
&first=0
&des=WWCL Team DX
&clock_count=4
&lv_5=13
&inote_5=(138)
{1},
{1},
||1.开头
{8}6,4,5,3,6,5,4>5[8:5],3,
{8}2q5[8:3],,,,,,,,
{8}3,4,5>3[8:1],,7,6,5-1[8:1],,
{8}2,4,8,6,3-1[8:1],,5,,
{8}2,3,4,5,6h[8:1],7h[8:1],8h[8:1],1h[8:1],
{8}7,6,5,4,3h[8:1],2h[8:1],1h[8:1],8h[8:1],
{8}5V31[8:2],,,6,7V15[8:2],,,,
{4}4w8b[8:14],,,,
{4},,,,,
{4}1-5[8:1],5-1[8:1]/1,7-2[8:1]*-4[8:1],7,
{4}3-7[8:1],6-2[8:1]/3,8-5[8:1]*-3[8:1],8,
{4}4p8[8:1],4-7[8:1]/6,4>2[8:1],4,
{4}8<5[8:1],8p4[8:1]/1,8p3[8:1],8,
{4}1bp4[8:1],2/1,8bq5[8:1],7/8,
{8}2b-6[8:1],,2/6<3[8:3],5p6[8:2],,,,,
{4}4bq8[8:1],5<7[8:1]/4,1>3[8:1]/5,C/1,
{16}5,4,6,3,5,4,7,2,6,3,8,1,7,2,8,1,
||2.主歌
{16}5x>2[4:1],,,,,,1v4[8:2],,8,,,5,
{16},,6,,7<5q1[8:3],,,,,,3,,2,,,3,
{8},4qq2>3[8:3],8qq6<7[8:3],,,,,,
{8}4h[4:1],,6pp8[4:1],,,,4>1[4:1],,
{16}1p5[4:1],,,,5p8[4:1],,,,,,7,,7,,,1>4[4:1],
{16},,6,,5,,,,,,6,,57,,,46,
{8},35,24,,1h[8:1],2h[8:1],3h[8:1],4h[8:1],
{8}5h[8:1],6h[8:1],7-3[8:1],,,,
{16}8q4[8:1]*p4[8:1],,,,{48},C,,{16},,,
7x-3[8:1],,,6,,,5,,4-8[8:1],,,3,
{16},,2,,1-5[8:1],,,,8,,,,7p2[16:4],,,,
{4}2p5[16:4],5p8[16:4],8xp3[16:4],3xp6[16:4],
{4}2,1s5[16:4],5xpp6[16:4]*qq4[16:4],,
{16},,,,2x-6[8:1],,,3,,,4,,5-1[8:1],,,6,
{16},,7,,8-4[8:1],,,1,,,2,,3-8[8:1],,,6,
{16},,7,,1,8,2,7,1,8,3,6,2,7,4,5,
{16}3,6,4qq5[8:5],5pp4[16:9],Cf,,,,
{4},,,
||衔接1
{4}E7,C,E3,,
||3.一副
{16}
1bpp3[8:1]/5bpp7[8:1],,,,C,,,,
6,,4,,2,,8,,
7-3[8:1]/1,,,,7/1w5[8:1],,,,
1,,,,3-1v4[8:2]/7-5v8[8:2],,15,,
3b/7b,,,,,,,,
2-6[8:1],,8-4[8:1],,2q3<2b[8:5],,8,,
2b,,,,,,,,
,,4,,5,,6,,
7x<4[8:1],,4,,3,,2,,
1x>4[8:1],,8,,7,,6,,
5x-1[8:1],,5,,4,,3,,
2xpp1[8:2],,,,6,,7,,
8qq4[8:3],,,,,,,,
1,,2,,3,,4/5,,
,,46,,5,,,3,45
,,6,,17,,8,2,
3b-8[8:1]/7b-4[8:1],,,,73,,,,
1-5[8:1],,7v4[8:1],,1,,7,,
3V17[8:2],,,,7V13[8:2],,,,
6,,,,7,,8,,
1b<6[8:1]/5b>2[8:1],,,,51,,,,
2-5[8:1],,8-4[8:1],,2,,8,,
2V86[8:2],,,,6V42[8:2],,,,
C,,,,8,,7,,
6x<1[8:1],,1,,2,,3,,
4x>1[8:1],,5,,6,,7,,
8x-4[8:1]
,,8,,1,,2,,
3x>8[8:1],,4,,5,,6,,
7b,,1,,28,,7,1,
2b/6,,5,,53,,4,5,
3bqq5[8:10]/6bpp4[8:10],,,,,,,,,,,,,,,,
,,,,,,,,,,,,,,,,
||衔接2
{4}4qq5[8:4]/5,,,,
{16}6,5,6,,3x,,5,4,5,,2x,,{24}7x,6x,5x,4x,,,
||4.桥段
{4}1b-7[8:1],2,3-1[8:1],4,
{4}5-3[8:1],6,7-5[8:1],8,
{4}3/1-5[8:1],5,6/8-4[8:1],4,
{4}3/5-8[8:1],7x/5x,1-4[8:1]/6,1x/3x,
{4}5-2[8:1],5/7b-4[8:1],1b-6[8:1]*-3[8:1]/7,1,
{4}4-7[8:1],4/2b-5[8:1],8b-3[8:1]*-6[8:1]/2,8,
{16}4xb/5xb,,5,,5,,1,2,3xb/8xb,,3,,3,,8,7,
{16}1xb/6xb,,,,{32}2,3,4,5,6,7,8,1,{16}2xb/6xb,,,,8-3[8:1],8,1,1,
||衔接3
{4}8bz4[8:4]*<1[8:10],,,,
{4}8<5[8:2],,,{8}3/7,3/7,
||5.二副
{4}6-1[8:1]/2-5[8:1],2b/6b,{8}7-5[8:1],5-1[8:1]/3,27,3,
{4}4x>1[8:1],7q4[4:1],4<1[4:1],{8}1,2,
{4}3-5[8:1],{8}6b-8[8:1]/3b,,1-5[8:1]b/6,3-1[8:1],1-6[8:1],3,
{4}4x-2[8:1],5x-1[8:1]/4x,{8}6b/5b,,8,7,
{8}5>1[4:1]/6,8,7,6,5x<1[4:1],2,3,4,
{8}5p1[8:1],8,7q3V51[8:3],6,5hx[8:2],,,,
{8}6V82[4:1],,2<6[4:1],,3,,4,5bxqq5[4:1]b*pp5b[4:1]b,,5<2[4:1],,,,,
{8}3,5,
{4}4b-8[8:1]/3b,4/2,{8}1-4[8:1],4-8[8:1]/6,71,6,
{4}5x<8[8:1],2p4[4:1],4>7[4:1],{8}7,6,
{4}5-8[8:1],{8}2b-4[8:1]/5b,,2-7[8:1]b/7,6-2[8:1],2>4-8[4:1],6,
{4}8x<6-1[8:2],1xw5[8:1]b,C,{8}3,7,
{8}6V48[4:1]/2,4,3,2,1xV37[4:1],7,6,5,
{8}4q8[8:1],1,2s6[16:2],3,1x/2x,,8/1,,
{48}7b,6x,5x,4x,,,{8}1,1,{16}6,6,{48}2b,3x,4x,5x,,,{8}7,7,{16}2,2,
{48}8b<2p1-7-5-3-1[4:15],B8f,C,B4,4hxb[48:188],,{16},,
{4},,,,
{4},,,,
{4},,,,
{4},,,,
E
