&title=Steel Edge
&artist=Maozon
&first=0.01
&des=GWG a.k.a TheBigBall
&lv_5=14
&inote_1=
&inote_5=(177)
{1},{8}4h[4:1]/5q3[2:1],,,2h[4:1],,,1h[4:1],,3p6[2:1],,,2h[4:1],,,3,,
5h[4:1]/4p6[2:1],,,7h[4:1],,,8h[4:1],,6q3[2:1],,,7h[4:1],,,6,,
3h[4:1]/5p8[2:1],,,2h[4:1],,,1h[4:1],,8pp7[2:1],,,3h[4:1],,,4,,
6h[4:1]/4q5[2:1],,,7h[4:1],,,8h[4:1],,6>1[8:5],8,8,8,7,6,5,4,
2h[8:1]/3h[8:1],,4/3h[8:1],7,4/6h[8:1],2,3-1[8:1]/5-7[8:1],26,
,,3/5h[8:1],1,6/4h[8:1],8,{16}4,1,5,8,
{8}7h[8:1]/6h[8:1],,5/6h[8:1],2,5/3h[8:1],7,6-8[8:1]/4-2[8:1],73,
,,6/4h[8:1],8,3/5h[8:1],1,{16}5,8,4,1,
{4}2pp6[2:1]/3h[8:1],5h[8:1],1h[8:1],8h[8:1],
7qq3[2:1]/6h[8:1],4h[8:1],8h[8:1],1h[8:1],
{8}23,34,45,56,76,65,54,43,
{16}2,1,8,7,6,5,4,3,4,5,6,7,8,1,2,3,
{8}46,7-3[8:1],16,2h[4:1],,4,35,46,{16}8z4[4:1],,,1,,,1,,3s7[4:1],,,6,,,6,,
{8}8h[4:1],5,4,3/5h[4:1],,{16}2,2,4,3,5,4,{8}6h[4:1],7,8,1/5h[4:1],,{16}2,3,4,1,2,3,
{8}41,3-8[8:1],47,5h[4:1],,1,26,37,{16}4p1[16:5],,,1,,,7,,5q8[16:5],,,8,,,2,,
{8}4h[4:1],7,6,5/3h[4:1],,{16}4,4,3,5,4,6,
{8}5h[8:1],7,3V58[64:11]/5V38[64:11],7V14[141.6#32:5]/1V74[141.6#32:5],,,,,
{8}53,2-6[8:1],83,7h[4:1],,5,64,53,{16}1s5[4:1],,,8,,,8,,6z2[4:1],,,3,,,3,,
{8}1h[4:1],4,5,6/4h[4:1],,{16}7,7,5,6,4,5,{8}3h[4:1],2,1,8/4h[4:1],,{16}7,6,5,8,7,6,
{2}5<5[2:3]/8h[4:1],2h[4:1],4h[4:1],6h[4:1],{8}83,45,16,45,27,{16}4,5,3,6,2,7,
{8}1-5[8:1],8-6[8:1],1-3[8:1],8-4[8:1],1-5[8:1],8-6[8:1],1,8,
1bw5[8:1],,1,,73,6,45,3,
{16}2/4<7[8:1],,,2pp4[8:1],,,2,,8<5[8:1],,,2q8[32:6],,,2,,
{8}7h[4:1],,1,2,37,4,56,28,3p7[8:1]/1,4,3/8p4[8:1],6,84,3,26,8,
3v8[8:1]/5v8[8:1],,53,,7,8,16,2,
{16}5/3q8[8:1],,,6q3[8:1],,,6,,1q5[8:1],,,8<5[8:1],,,8,,
{8}4h[4:1],,3,2,14,8,73,15,{16}2,6,3,7,4,8,5,1,4,8,3,7,2,6,1,5,
{8}8bw4[8:1],,8,,26,3,54,6,
{16}7/5>2[8:1],,,7qq5[8:1],,,7,,1>4[8:1],,,7p1[32:6],,,7,,
{8}2h[4:1],,8,7,62,5,43,71,6q2[8:1]/8,5,6/1q5[8:1],3,15,6,73,1,
6v1[8:1]/4v1[8:1],,46,,2,1,83,7,
{16}4/6p1[8:1],,,3p6[8:1],,,3,,8p4[8:1],,,1>4[8:1],,,1,,
{8}5h[4:1],,6,7,85,1,26,84,{16}62,5,4,3,2,1,8,7,8,1,2,3,4,5,6,7,
{1}8b<1[2:7]/1b>8[2:7],,,,{48}2b/7b,3b/6b,4b>5[2:7]/5b<4[2:7],,,,{8},,,,,,,{1},,,
{4}3h[1:1]/6,4,2,4,6h[1:1],5,7,8,1>4[4:1],,5h[4:3],4,6,3,
{8}18,27,3>1[8:1]/6<8[8:1],45,
36,,7h[8:1]/2,4,2/8h[8:1],4,2/1h[8:1],4,
3h[8:1]/7,5,2h[8:1]/7,5,7/1h[8:1],5,7/8h[8:1],5,
16,27,38,14,83,72,61,85,{16}1,2,3,4,5,6,7,8,7,6,5,4,3,2,1,8,
{1}7b-2[4:5]/6b-3[4:5],{4},,,{16}4,5,4,5,
{8}36,2>5[8:1],17,6h[4:1],,{16}7,7,6,8,7,1,{8}8h[8:1],2,31,4/5h[4:1],,
{16}3,2,1-5[8:1],{32}4,3,2,1,8,7,{8}6b,8-4[8:1],37,1h[4:1],,5,26,48,
{16}1-6[8:1],,,3,1,,2,,1-4[8:1],,7,7,1,,8,,
{8}1h[8:1],3,28,7h[4:1]/3,,{16}8,8,7,1,8,2,
{8}1h[8:1],3,4-8[8:1]/8,7-5[8:1]/5,4,7,2,36,
{8}45,3-7[8:1],24,1h[4:1],,6,25,43,{16}2-5[8:1]/8,,,7,2,,8,,8-5[8:1],,3,3,8,,2,,
{8}63,7<4[8:1],82,3h[4:1],,{16}2,2,3,1,2,8,{8}1h[8:1],7,68,5/4h[4:1],,
{16}6,7,8-4[8:1],{32}5,6,7,8,1,2,
{4}3b>5[2:5],5h[8:1],5h[8:1],5h[8:1],4h[8:1],4h[8:1],4h[8:1],4h[8:1],
3h[8:1],3h[8:1],3h[8:1],3h[8:1],
4p8[8:1]/3q7[8:1],,{8},1b,1b,,
81,2>4[8:1],1,{48}2b/8b,7,6,,,,{8},1>3[8:1],8,{48}1b/7b,6,5,,,,
{8},8>2[8:1],7,{48}8b/6b,5,4,,,,{8},5,3b/7b,,
18,7<5[8:1],8,{48}7b/1b,2,3,,,,{8},8<6[8:1],1,{48}8b/2b,3,4,,,,
{8},1<7[8:1],2,{48}1b/3b,4,5,,,,{8},4,6b/2b,,
3<8[2:3]/1,1,1,1,2,2,2,2,3,3,3,3,4,4,4,4,
75,6,24,3,48,{16}3,7,2,6,1,5,8b,7,6,5,4,3,2,1,2b/6b,37,48,15,
{24}6,7,8,1,2,3,{1}4b/5bs1[4:5]*s1[4:5],,,
