&title=Live Fast Die Young
&artist=anubasu-anubasu
&first=0
&lv_5=13+
&des_5=Nabla
&inote_5=
(153){4},{8},,,,,,,,,,6,
5,4,3qq6[8:7],
{1}3h[4:3],
{2}3<5[4:1],6<8[4:1],
{1}1pp5[4:3],
{2}6<8[4:1],1>3[4:1],
{1}5pp4[4:3],
{2}3-8[4:1],7-4[4:1],
{1}1pp4[4:3],
{2}5<8[4:1],{4}1h[4:1],{8}8,8,
{4}1b/7b>4[4:1],{8},,,,5b/2b,3b/6b,
{4}7b/4b>6[4:1],{8},,,,4b/3b,2b/5b,
{4}6b/1b-5[8:1],1b/8b,8b-5[8:1]/7b-4[8:1],7b/8b,
{16}3,4,{8}3,2/5,{16}7,8,,2,{8}1,3/8,7,
{4}1b-5[8:1],1/6-1[8:1],6/3-6[8:1],3/8-4[8:1],
8/3-8[8:1],3/6-3[8:1],{16}6/1,,,2,{8}1,3/8,
{4}2-6[8:1],2/8-5[8:1],8/3-8[8:1],3/6-3[8:1],
6/1-5[8:1],{16}8/1,,,6,6,5,,7,{8}8,1/6,
{4}2>5[8:1],2/6-3[8:1],6/1-5[8:1],1/6<1[8:1],
6/2-6[8:1],2/8,{16}1/7,,,2x,8,8,{8}1,
{16}7-4[16:1],,,3-8[16:1],,,{8}5-1[16:1],{16},2-5[16:1],,,{8}8,{24}8,7,6,
{4}1bv3[4:1]/5xv7[4:1],,,2x/6x,
{16}1b,7b,{8}1b,{4}6b-2[8:1]/2b-5[8:1],6b/2b<7[8:1],{8}4b,{16}3,3,
{8}4,{16}2,1,,3,{8}4,{16}2-5[8:1],1,,1,{4}2,
6b/3b-5[8:1],3b-7[8:1]/7b-4[8:1],3b/7b>2[8:1],{8}5b,{16}6,6,
{8}5,{16}7,8,,6,5,6,{8}4-7[8:1]*-1[8:1],5/3,{4}4,
8b-6[8:1],8b-5[8:1]/4b>1[8:1],4b/8b-3[8:1],{8}6b/8b,{16}5,5,
{8}4,{16}6,5,,7,7,5,{8}6,4/3,{16}2b,1b,{8}2b,
{16}2b-5[16:1],,,6b-1[16:1],,,{8}4b-8[16:1],{16},7b-4[16:1],,,{4}1bw5[8:1],
{1}1b<3[2:1],
8b,
,,,2h[1:1],
{2}4V61[2:1],1V37[2:1],
{1}4h[1:1],
{2}5<2[2:1],2V84[2:1],
{1}3h[1:1],
{2}2<5[2:1],4>1[4:1],
{1}6h[1:1],
7>4[2:1],
{8}5/3h[8:1],5,4,{16}6,5,,6,{8}5,7,5,
6,6,4,{16}3,5,3,5,{8}4,6,5,
4/6h[8:1],4,5,{16}3,4,,3,{8}4,2,{24}3,4,3,
{16}5,,,5/7,,,{8}6/5,3,4,3/5,5,
4/6h[8:1],4,5,{16}3,4,,4,{8}3,4,5,
3,3,5,{16}6,4,6,4,{8}5,3,4,
5/3h[8:1],5,4,{16}3,5,3,5,{8}4,{16}6,5,3,4,
{2}6<4[4:1],{4}5w1[8:1],5,
7/3,7/5,3/8,5/8,
3/1,5/1,3/8,{8}5/8,7,
{4}2/6,2/4,6/1,4/1,
6/8,4/8,6/1,{8}4/1,2/5,
6/3,7,2/4,{16}1,1,{8}6,7,8/1,{16}7,6,
{8}5/4,3,5/7,{16}8,8,{8}2,1,5/3h[8:1],{16}6,6,
2,2,5,5,3,3,6,6,1,1,4,4h[16:3],{32}8,7,6,5,{96},,{48}3x,2x,1x,8x,7x,
{4}6x-2[4:1],,,Cf/B7/B6/B2/B3,
{8}8/1x>4[8:1],2,1x/8,{16}7,7,{8}5x<8[8:1],4,5/3,{16}2,2,
{8}1x,3,7x-3[8:1],{16}2,2,{8}7x-4[8:1],1,7x,8,
1x-6[8:1],5,1x>4[8:1],{16}5,5,{8}1x,7,1/5x-1[8:1],{16}8,8,
{8}5x,6,1x/4x-8[8:1],{16}2,2,4x,,,3x,{8}3x,2/4x,
1/8x<5[8:1],7,8x/1,{16}2,2,{8}4x>1[8:1],5,4x/6,{16}7,7,
{8}8x,6,2x-6[8:1],{16}7,7,{8}2x-5[8:1],8,2x,1,
8x-3[8:1],4,8x<5[8:1],{16}4,4,{8}8x,3,2x/4x,{16}6,5x/7x,
,,{8}2x/4b,5b/7x,{16}1,2b/8xh[16:3],{48},,,,,,{24}2,3,4,{8}5x/1b,3/7,
6<1[8:1]/2x>4[16:1],1,6/2x-6[8:1],{16}5x,5x,{8}2x-5[8:1],3,2x/6,{16}8,7,
{8}6x-1[8:1],5/8,6x/2<5[4:1],{16}3,3,{8}2x-6[8:1],3,2x,4,
7x>2[8:1],6,7x,{16}5,5,{8}3x-8[8:1],4/7,3x/5,{16}4,4,
{8}7x<4[8:1],2,7x/8,{16}2,2,{8}1x,8/4,{16}3b-6[8:1],6b,{8}2b,
3>8[8:1]/7x<5[16:1],8,3/7x-3[8:1],{16}4x,4x,{8}7x-4[8:1],6,7x/3,{16}1,2,
{8}3x-8[8:1],4/1,3x/7>4[4:1],{16}6,6,{8}7x-3[8:1],6-2[8:1],7x-1[8:1],6x,
7x,3,4/5x,{16}6,5x/7x,,,{8}2x/8b,4x/6b,7x/1b,
{1}3b/5xh[4:3],
{4}7-4[8:1]/2b-5[8:1],2/7b,{8}8/1b,{16}2,5,4b,7,{8}3,
1/8b,{16}7,4,5b,2,{8}6,8/1b,7,{16}3b,3b,{8}3b,
{4}6-1[8:1]/2b-5[8:1],6b/2,{8}6/2b,{16}3,5,1b,6,{8}4,
3/7b,{16}6,4,8b,3,5,4b/6b,,,{8}3b/7b,{16}2b,2b,6b,6b,
{4}1b-6[8:1]*-4[8:1],1b,{8}5b,{16}2,4,1b,6,{8}5,
4b/6,{16}7,5,8b,3,{8}4,{16}7/2b,,,8b/1,{8}1b-5[8:1]/8-4[8:1],7b/2,
{4}1b/8,{16}7b/2b,,,4b/6,,,{8}2/8b,{16}1b-5[8:1],7b,3b,5b,
{384}1b<2[4:3],Cf,
E
