&title=charm♡you
&artist=U-ske feat.花柚
&first=0
&des=NekoMuseigen
&lv_5=13+
&inote_5=(147){1},,
{16}
3h[8:1],,4,,6,,5,,
3,,4,4h[16:3],,,5,,
6h[8:1],,5,,3,,4,,
6,,5,5h[16:3],,,4,,
3h[8:1],,4,,6,,5,,
3,,4,4h[16:3],,,5,,
6h[8:1],,5h[8:1],,4h[8:1],,3h[8:1],,
{24}2,3,4,5,6,7,{16}8b/1b,,,,
{24}
25,,3,4,,,2h[8:2],,,1,,,
8h[24:3],,,3,,3,4,,,2,,,
6h[8:2],,,5,,,4,,,7,,7,
8,,,6,,5h[24:4],,,,6,,,
74,,6,5,,,7h[8:2],,,8,,,
1h[24:3],,,6,,6,5,,,7,,,
3h[24:3],,,6,,5,7,,5,6h[8:1],,,
3,,4,2,,4,3h[8:1],,,5,,,
26,,3,5,,,2h[8:2],,,8,,,
6h[24:3],,,4,,4,6,,,3/7,,,
8h[8:1]/2,,,3,,,64,,,7,,7,
1,,,5,,4h[24:4],,,,6,,,
73,,6,4,,,7h[8:2],,,1,,,
3h[24:3],,,5,,5,3,,,62,,,
{8}7bv8[8:1]/1bpp3[8:1],,,,1,28,37,46,
5h[8:1],4,3h[8:1],6,
5h[8:1],2,3h[8:1],7,
5h[8:1],1,3h[8:1],8qq1[32:7],
{16}8-2[32:4],,,,,,,,
{8}
4h[8:1],5,6h[8:1],3,
4h[8:1],7,6h[8:1],2,
4h[8:1],8,6h[8:1],1pp8[32:7],
{16}1-7[16:2],,,,,,,,
{8}
6h[8:2],1,2h[8:2],5,
6h[8:2],3,2h[8:2],7,
6h[8:2],4,2h[8:1],8qq1[16:4],
{16}8>3[32:4],,,,,,,,
{8}
3h[8:2],6,7h[8:2],2,
3h[8:2],5,7h[8:1],1,
3/5,46,25,4>5[8:2]/7,
{16}1b/5b,,,,,,,,
{24}36,,3,4,,4,2,,2,7,,7,5,,5,6,,6,8,,8,1,,1,
{16}3,,24,,75,75,,8pp2[32:5]/1qq7[32:5],,,,,,,,,
{48}1bpp8[32:10]/8b,27,36,45,,,{8},
8,,7<4[8:1],6,3>8[32:4],2,5-2[32:4],6,7pp5[32:11],8,1b,,,2,1/5pp4[16:5],,4,,
2<7[16:2],1,5-2[32:4],6-1[16:2],5,6,4,3,2v3[8:1]/5<8[8:1],41,,,
{16}
6,5,6,7,6h[8:2],,,,3,4,3,2,3h[8:2],,4,,
6,5,6,8,6h[8:2],,,,3,4,3,1,3h[8:2],,4,,
7,5,7,1,7h[8:2],,,,2,4,2,8,2h[8:2],,4,,
{24}6,,6,5,,5,4,,4,3,,3,4,,4,5,,5,7,,7,1,,1,
{8}3<2[16:5],,,,,,1b/8b,,
3/6<1[8:1],5,6/4qq5[32:10],3,{16}84,,,7,,,6h[8:1],,
5,,74,,8-2[32:3]/3,,4-6[32:3]/7,,8v6[32:4],,4,,8,,,,
{8}
4-2[32:3],5,4/6pp5[32:10],7,{16}16,,,2,,,3h[8:1],,
4,,25,,1/6<1[32:4],,5/2,,3v8[32:4],,4,,35,,,,
{8}
7-4[8:1],6,7/3qq5[32:11],2,{16}35,,,6,,,7h[8:1],,
8,,61,,5-3[32:3]/2,,1-7[32:3]/6,,5-1[16:2],,1,,5,,
{8}
3,2h[8:2]/4h[8:2],,,6,7h[8:2]/5h[8:2],,,3,24,15,2<7[8:1]/6,7,2,
{24}6,5,4,3h[8:2],,,,,,
{24}2,,,3,4,3h[24:19],{8}4,5,6,7,6,5,4<7[8:1],3,2,1,8pp2[8:1],,,,
{24}7,,,6,5,6h[24:19],{8}5,4,3,2,3,4,5>2[8:1],6,7,8,1-5[8:1],28,71,,
{24}64,,,3,4,3,{8}4,2,6/4h[8:1],7,8h[8:1]/6,5,2/4-8[8:1],3,6/4,5,2/4qq2[8:1]*v2[8:1],,,,
{24}35,,,6,5,6,{8}5,7,5h[8:1]/3,2,1h[8:1]/3,4,7/5,64,3/5,42,3/1w5[8:1],,1b,,
{16}
3/7h[8:1],,5b,7,1,5b,3,,2h[8:1]/4h[8:1],,,4h[8:1]/5h[8:1],,,5/7h[8:1],,
2h[8:1],,4b,2,8,4b,6,,7h[8:1]/5h[8:1],,,5h[8:1]/4h[8:1],,,4/2h[8:1],,
6h[8:1],,4b,6,2,4b,3,,3h[8:1]/4h[8:1],,,4h[8:1]/5h[8:1],,,5/6h[8:1],,
3h[8:1],,5b,3,7,5b,6,,6h[8:1]/5h[8:1],,,5h[8:1]/4h[8:1],,,4/3h[8:1],,
{24}
8,,8,7,,7,6,,6,5,,5,4,,4,3,,3,2,,2,1h[8:1],,,
8,,8,2,,2,4,,4,6,,6,7,,7,5,,5,3,,3,1h[8:1],,,
6h[24:2],,2,7h[24:2],,3,8h[24:2],,4,1h[24:2],,
3,7h[24:2],,2,6h[24:2],,1,5h[24:2],,8,4,,,
7h[8:4]/1b,,,,,,2b,,,,,,3b,,,
6,,4,5,,3,4,,,
{8}2h[8:12],4,,4,,4,,4,,4,,4,4-8[8:1],17,4b,,
{8}
1/3>8[32:4],4,3/7v4[32:4],6,{16}4q8[8:1]/7,,,3,4,,2h[8:1],,
1,,38,,4/7p3[32:4],,8/3<6[32:4],,2<7[8:1],,2,,,,,,
{8}
6<8[32:3]/4,5,6/2>5[32:4],1,{16}5p1[8:1]/2,,,6,5,,7h[8:1],,
8,,61,,5/2>5[32:4],,1/6<1[32:4],,2q6[8:1],,6,,2,,
{8}
7,6h[8:2]/8h[8:2],,,2,3h[8:2]/1h[8:2],,,7,68,51,6-1[8:1]/2pp2[16:4],37,62,,7,
78,1h[8:2]/5h[8:2],,,21,8h[8:2]/4h[8:2],,,78,15,26,3-8[8:1]/7qq4[8:3],48,37,,
{4}1b,,,,,,
