&title=INFINITE SKY
&artist=KOTOKO
&first=0
&des=AMMR
&lv_5=13+
&inote_5=(190){1},
{8},,,,,,,,
{8}3h[2:1],,,,6>3[8:4],,4,,
{8}2h[8:2],,,2h[8:2],,4,,,
{8}3h[4:1],,5,4h[4:1],,6h[4:1],,4,
{8}5h[4:1],,3,4,5,4,,6h[8:5],
{8},,,,3<6[8:4],,5,,
{8}7h[8:2],,,7h[8:2],,5,,,
{8}6<1[56:15],,,2,2,,,,
{8}3>7[56:20],,,6,6,,,,
{8}5<4[8:5],,,4,4,,,,
{8},,53,64,53,64,,1bpp4[8:13]`8bqq5[8:13],
{8},,,,,,,,
{8},,,,,,,,
{8}4qq8[8:12]`5pp1[8:12],,,,,,,,
{8},,,,,,,,
{8}3>6[2:1],,6,,5,,4,,
{8}3>6[2:1],,6,,5,,4,,
{8}3>6[2:1],,6,,5,,4,,
{8}3>6[2:1],,6,,5,,4,,
{8}3qq6[8:5],4,5,,,,7,7h[8:3],
{8},,1,1h[8:3],,,3<2[8:6],3h[8:7],
{8},,,,,,,,
{8}2,2,6,6,{16}4,3,2,1,{16}8,7,6,5,
{8}4b-1[8:1],,,7-4[8:1],,,2-7[8:1],,
{8},5-2[8:1],,,8-3[8:1]*-4[8:1],,8,,
{8}5-8[8:1],,,2-5[8:1],,,7-2[8:1],,
{8},4-7[8:1],,,1-6[8:1]*-5[8:1],,1,,
{8}4>1[8:1],,,7<4[8:1],,,2<7[8:1],,
{8},5>2[8:1],,,8q4[8:1]*v3[8:1],,8,,
{8}6b-3[8:1]/5b-8[8:1],,,,6p2[8:1]/5q1[8:1],,,,
{8}3-6[8:1]/4-1[8:1],,,,3q7[8:1]/4p8[8:1],,,,
{8}1-4[8:1]/6-3[8:1],,1b/6b,,2,2,1,3-6[8:1]/8,
{8},,1,1-6[8:1],,5-2[8:1],,7-4[8:1],
{8},1,1-6[8:1],,4,4>5[8:3],,,
{8}5,,4,,2-5[8:1],4,2,,
{8}8-5[8:1]/3-6[8:1],,8b/3b,,7,7,8,6-3[8:1]/1,
{8},,8,8-3[8:1],,4-7[8:1],,2-5[8:1],
{8},8,8-3[8:1],,5,5<4[8:3],,,
{8}4,,5,,7-4[8:1],,37,,
{8}25,3,47,6,5/2-5[8:1],3,2b/8b,,
{8}74,6,52,3,4/7-4[8:1],6,7b/1b,,
{8}25,3,47,6,5/2-6[8:1],3,2b/1b,,
{8}7h[4:1],,5,3/8h[4:1],,5,3,1,
{8}7<4[8:1],,4,2<7[8:1],,7,5>2[8:1],,
{8}2,8<5[8:1],,5,3w7[8:1],,3,,
{16}15,,3,4,3,,16,,3,4,3,,17,,,,
{8}35,35,17,71,46,46,28,82,
{8}4b-8[8:1],5,6,,7-3[8:1],1,2-6[8:1],,
{8}2b/5<3[4:1],,5,4h[8:3],,,8-5[8:1],8,
{8}2-6[8:1],2,4q8[8:1],4,1<6[8:1],2,3-7[8:1]/1,,
{8}3b/4<2[4:1],,4,3h[8:3],,,1<6[8:1],{16},,
{8}2/1>4[8:1],,1/5qq6[8:3],,5/8<6[8:1],,8>3[8:1],,
{8}7/8<5[8:1],,8/4pp3[8:3],,4/1>3[8:1],,1<6[8:1],,
{8}1/2qq3[8:3],,24,,5pp4[8:3],,45,,
{8}3>5[4:1],,3,4h[8:3],,,{32}6,7,8,1,2,3,4,5,
{8}7-3[8:1],7,5p1[8:1],5,8>3[8:1],7,6-2[8:1]/8,,
{8}6b/5>7[4:1],,5,6pp4[8:3],,,3,2,
{8}1bpp8[8:3],,14,,5bpp4[8:3],,75,,
{8}1b,2b<4[4:1],3b,4bw8[240:35],,,,,
{24}7,6,5,4<7[8:1],,,,,,8,1,2,3qq5[8:3],,,,,,8b,7,6,5,,,
{4},7>6[64:21]/6>7[64:21],7b/6b,,
{24}2,3,4,5>2[8:1],,,,,,1,8,7,6pp4[8:3],,,,,,1b,2,3,4,,,
{4},2<3[64:21]/3<2[64:21],2b/3b,,
{24}7b,6,5,4<7[8:1],,,,,,8b,1,2,3>8[8:1],,,,,,7b,6,5,4q8[8:1],,,
{24},,,8b,1,2,3,,,,,,{8}7-2[8:1]/5-2[8:1],,7v6[8:1]/5v6[8:1],,
{8}7b>6[2:1]/5b>6[2:1],,,,,,,,
{8}3,3h[8:7],,,,,,,
{8}5,4,4,6,6<4[8:5],,1,,
{8}3,,5,5,,6,4,5,
{8}3,5,4,6,,6,4,5,
{8}3,,2,2,6,6h[4:1],,8,
{8},5,5,3,3>5[8:5],,8,,
{8}6,,4,4,,3,5,4,
{8}6>1[2:1],,,8,8,,,,
{8}3<8[2:1],,,1,1,,,{16}1,1,
{8}1b,,35,47,25,4>1[8:1]/8<5[8:1],,4bpp3[8:15]`8bpp7[8:15],
{8},,,,,,,,
{8},,,,,,,,
{8},,,,,,,,
E
