&title=黒蝶のワルツ
&artist=ぺのれり
&first=0.01
&des=Yepfox & Taiyehu & Neya
&lv_5=14+
&inote_5=(108)
{8},,,,,,
{12}5/3h[24:3],
{24},4,3,4,3h[8:1],,,4h[8:1],,,5h[8:1],,,
{24}6,,,
{8}7,8p6[16:5],1,2,,,
{12}4h[24:3],
{24},5,4,5,4h[8:1],,,5h[8:1],,,6h[8:1],,,
{24}7,,,
{8}8,1p7[16:5],2,3,,,
{24}3h[8:1],,,4,3,4,
{8}3h[8:1],5h[8:1],4h[8:1],6h[8:1],
{8}5,34,
{32}2,4,2,4,2,4,2,4,
{8}2,35,
{8}4/6h[8:2],5,3,4/2h[8:2],3,5,7h[8:1],5h[8:1],4h[8:1],2b,
{24}6,5,6,3,4,3,8,,17,,,2h[24:3]/4,
{12},
{32}5pp8[32:9],63,4/7,,
{24},
{8},,2,3,4,
{16}5b/7h[12:1],,,2b/4h[12:1],,,
{24}2,,83,,,7h[24:3]/5,
{12},
{32}4qq5[32:6],36,2/5,,
{24},
{8},,7,
{24}56,,7,1,7,2,4,2,5,3,5,4,6b,,,3h[24:3]/7,,,
{24}6,7,8,1/2,3,4,57,,,1b/2b,,,3,,,
{24}6h[24:3]/2,,,
{24}3,2,1,8/7,6,5,42,,,8b/7b,,,6,,,
{32}1h[32:3]/5,,,4h[32:3],,,2h[32:3],,,6,,,5/7h[32:3],,,3h[32:3],,,4h[32:3],,,2,,,
{32}1h[32:3]/5b,,,7,,,6h[32:3]/2b,,,4,,,3h[32:3]/7b,,,1,,,8h[32:3]/4b,,,6,,,
(160)
{16}1b/8b,,3,,6,5,7,,
{16}18,,7,8,,6,4,,35,,3,,2,1,3,,45,,6,5,,7,1,,82,,3,7,4,5,2,,18,,7,5,,3,2/4b,,
{12},2,2,8,3,7,7,2,6,6,1,1,
{16}8b/2b,,,,3,6,5,7,1b>3[16:1],,,1b/5b<7[16:1],,,4b/5bp1[8:1]*v8[8:1],,,,
{16}5,,,,,,2h[8:1]/4,,5,,
{16}6h[8:1]/3,,5,,7h[8:1]/4,,3,4,2h[8:1],,6,5,7h[16:3],,,4,,35,,,
{16}2b,4,3,5b,4,5,2b,4,3,5b,4,6,2b,,18,,
(108)
{24}7/3,,,4/6,3,2,1qq3[8:2]/7,6,5,4/2,,,1b,,,5,,,
{24}6,,,5/3,6,7,8pp6[8:2]/2,3,4,5/7,,,8b,,,4,,,
{24}3h[24:6],,,1,8,7,6h[24:2],,1,6,,5,7,,7,1,,8,
{16}2b,2,2,6b,6,6,7/1b,1,1,2/8b,8,8,
{32}1b,2,3,4,5,6,7,8,1,2,3,4,
{32}6,5,6,5,6,5,6,5,4b/7b,,,,
{24}8b/1b,,,3,4,2,6,5,7,
{24}1v6[12:1],2,3,46,7,8,12,,,
{32}5<1[8:1],,7,,,,3,,5,,,,4qq5[16:3],,,,13,,,,74,,,,6h[8:2],,,,7,8,1,2,
{24}3,,5,4,,4,6,,6,5,,5,
{32}7,,,,12,,38,,
{24},,4,
{24}6,6,5,5,8,8,2,2,4,3b/5b,,,
{24}6,5,7,3,4,3,8,1,7,4,5,3,6,5,7,1,2,3,46,7,8,1b/2,,,35,,,78,,,
{32}25,,,,
{24}3,5,3,6,4,6,3,2,1,8/4b,5,6,71,2,3,46,7,8,
{32}1b/2,,,35,,,78,,,64,,,
{24}7,5,6,4,5,3,7,4,5,
{24}2b,,,6,5,7,3,4,2,
{24}8v3[12:1],7,6,35,2,1,87,,,
{32}4>8[8:1],,2,,,,6,,4,,,,5pp4[16:3],,,,68,,,,25,,,,3h[8:2],,,,2,1,8,7,
{24}6,,4,5,,5,3,,3,4,,4,
{32}2b,6,2,6,2,6,1b,7,1,7,1,7,8b,,,,
{32}71,6,5,4,1,2,3,4,
{24}7b/5,,,73,6,5,84,7,6,1b-6[12:1]*-4[12:1]/5b,,,7b/3b,,,1b,,,5b,,,73,2,1,84,3,2,5bq1[12:1]*v8[12:1]/1,,,7b/3b,,,5b,,,
{24}2,3,4,1,2,3,8,1,2,7,8,1,6,7,8,5,6,7,
{32}2,8,2,8,3,7,3,7,4,6,4,6,5b,,,,8b/2b,,,,,,,,
(160)
{16}3h[16:3],,,8,1,,27,,,,64,3,2,1,87,,
{24}6,,,3,5,3,5,3,5,3,,,
{16}1,1,,75,,8,2,1,3v8[8:1],,,7,3,,6>3[8:1],,,8,6,,1-5[8:1],,,6,1,,7^2[8:1],,,3,7,,3,4,5,,7,4,5,2,7,,,3,4,,25,,,,
{16}1,1,6,6,4,4,
{24}8,7,6,54,3,2,8,7,6,45,3,2,71,,,
{16}6,5,6,,
{24}3,4,3,5b,,,1/7-3[8:1],,,,,,
{16}4,,4>1[8:1],,,,5,6,7^4[8:1],,,,1-5[8:1]/7,,,,18,,,,
{16}7,5,6,4,5,3,4,4,2,2,6,6,,4/7,,18,,25,,73,7,2,2,6,6,5,5,7,,38,,46,4,7,1b,,,,
{16}2,2,8,8,1,1,,7/5,,34,,18,,6,6,1,
{16}5h[8:1],,3b,5,3,7b,4,6,2b,4,3,5b,4,6,1b,,7,7,8,8-4[8:1],,,,82,,,3,3,5,5,,1/6,,,74,,82,,,
{16}7,5,6,4,7,5,8,2,4,1,,,
(108)
{24}2b,2,4,8b,8,6,3b,3,1,5b,5,7,7b,,,
{48}1b,2,3,4,5,6,7,8,1,7b,6,5,4,3,2,13,84,75,6b,,,,,,8b/4b,,,,,,,,,,,,
{24}8,8,8,8,8,8,8,8,8,8,8,8,8-4[12:1],8,8,8,8,8pp3[24:25],8bqq5[1:1],,,,,,,,,,,,,,,,,,,,,,,,,,,,,,,,,,,,
{4}2<4[1:1]/6<4[1:1],,,,,
{8},,3pp7[8:3]/7<1[8:3],,,,,,8q1[8:3],,,,2h[8:1],,
{8}5h[8:1]/3h[8:1],,35,4h[8:1]/6h[8:1],,46,
{32}2b/5b,,,17,,,6b/4b,,,38,,,
{24}7,1,5,3,4,2,6,4,7,
{24}5b,,,3,4,2,6,5,7,
{24}1v6[12:1],2,3,46,7,8,12,,,
{32}5<1[8:1],,7,,,,3,,5,,,,4qq5[16:3],,,,13,,,,74,,,,6h[8:2],,,,7,8,1,2,
{24}3,,5,4,,4,6,,6,5,,5,
{32}7b,3,7,3,7,3,8b,2,8,2,8,2,1b,,,,
{32}28,3,4,5,6,7,8,1,
{24}7b/2,6,5,4/8,3,2,1/5,8,7,6/3b,4,5,6/2,7,8,1/5,,,
{32}5-1[16:1]*-2[16:1]/6,,28,,,,5b,,,,,,7-3[16:1]*-4[16:1],,8/6,,,,7b,,,,,,
{32}8,2,8,2,7,3,7,3,6,4,6,4,
{8}5b,3h[16:1]/4h[16:1],5h[16:1]/7h[16:1],
(160)
{16}8b/1b,,6,,3,4,2,,
{16}81,,2,1,,3,43,,54,,6,,8,1,7,,54,,3,4,,2,2/1b,,18,,6,2,5,4,7,,81,,3,24,,6,7/5b,,
{12},7,7,1,6,2,2,7,3,3,8,8,
{16}4b,,
{24}8,7,6,
{16}5<8[8:1],2,4,3,5,,,2h[8:1],,,7h[8:1]/1h[8:1],,,
{24}2,3,4,
{16}5,7p3[8:1],3,6,4,7,,,2h[8:1],,,3h[8:1]/6h[8:1],,,,
{16}4,5,3,4,2,5,4,6,5,7,2q6[8:1],1,3,8,2b,,
{16}7-3[16:1],,,1-5[16:1]/7,,,61,,,7,4,6,3b,,
{16}18,,,35,46,,12,12,83,,,7h[4:1]/5,,,
{32}6,5,4,3,
{16}8,1,5,3,,46,,18,,35,,8-4[12:1]*-4[12:1],2,6,4,8b,
