&title=Mystic Light Quest
&artist=塞壬唱片MSR
&first=0
&des=XM_Dresk
&lv_5=13+
&lv_6=14
&inote_5=(160)
{4},,,,,,,{16},,{64},{128},
{4}
4pp8[4:5]/3h[4:1],,2h[4:1],,1h[8:5],,,81,
8qq1[4:5]/1h[4:1],,2h[4:1],,3h[8:5],,,1/3-7b[8:1],
{128}
2h[4:1],Cf,,,,,,,,,,,,,,,,,,,,,,,,,,,,,,,
{16}
,,8,,8h[4:1],,,,5,,6,,3,4,2h[8:1],,5,,6,5,7h[8:1],,3,4,2h[8:1],,8,,
{8}
1h[8:1]/7,7,8h[8:1]/2,2,1h[8:1]/7,5,8h[8:1]/2,4,
{12}
7bx,1bx,5bx,3bx,,E5/B4/E4/A4/A8/E8/B8/E1,,A6/E6/B6/E7/A2/B2/E2/E3,,
{8}
C,,8<4[4:3],,2,2,,4,4-7-1[4:4],,3,,2,2,,1,1-6-8-4[4:4],,2,,3,3,,4,4-7-5-1[4:3],,3,,2,3,4h[4:1],,,,
2V48[4:2],,5,5,,6,6,,7V51[4:2],,2,2,,3,3,,2V84[4:2],,7,7,,6,6,,47,6,35,2,1-5b[8:1]/8-4b[8:1],,1b/8b,,
{16}
6-8[8:1]/2,,,3,6,,4,,6v1[8:1],,2,,63,,4,,6-8[8:1],,2,,63,,4,,6v1[8:1],,2,,63,,4,,
8-4[8:1]/3,,,2,8,,1,,8-6[8:1],,3,,82,,1,,8-4[8:1],,3,,82,,1,,8w4[8:1],,,,8b,,,,
3-1[8:1]/7,,,6,3,,5,,3v8[8:1],,7,,36,,5,,3-1[8:1],,7,,36,,5,,3v8[8:1],,7,,36,,5,,
1-5[8:1]/6,,,7,1,,8,,1-3[8:1],,6,,17,,8,,1-5[8:1],,6,,17,,8,,1,8,1,8,
{32}
B2,B7,,,,,,,
{64},
{8}
1h[4:2],,,,C,,7,7h[8:3],,5,5h[4:1],,B8,,B7,,6,6,6h[4:1],,B3,,2,2h[8:3],,4,4h[4:1],,B1,B2,B3,,
5h[8:1],3h[8:1],B6,B2,5h[8:1],3h[8:1],E7,E2,5h[8:1],3h[8:1],A7,A1,C,,B4,,
4h[8:1],6h[8:1],B3,B7,4h[8:1],6h[8:1],E3,E8,A1f,,Cf,,A5f,,,
3,4/2h[4:1],,6,5,4/7h[4:1],,3,2,18,7,64,3,5h[8:2]/2h[8:2],,,
18,1h[4:1]/8h[4:1],,,72,7h[4:1]/2,,3,4,6V84[4:1],5,6,,1h[4:1],,5,,
2-4[8:1],2,6,7,8v5[8:1],8,4,3,2v5[8:1],2,6,7,8-6[8:1],8,4,3,15,15,26,26,
{12}
7x,6x,5x,1x,2x,3x,
{4}
4b/8b-5>4b[8:1],8b/3bq4b[4:1],3b,C,
{8}
7-5[12:1],,7/4-8[8:1],3,4/2-6[8:1],1,7-4[8:1]/2,,
7/3-1[12:1],,3/8-6[12:1],,8/2-5[8:1],,2/8-4[8:1],,3-1[12:1]/8,,3/8-4[8:1],,8/3-1[12:1],,3/8-6[12:1],,
8/2h[4:1],,5,3,
64,5,
{8}
7-5[12:1],,7/8-4[8:1],,8/1-5[8:1],2,1/3-8[8:1],2,3/6-2[8:1],,
6/4-8[8:1],,4/5-7[12:1],,5/3-1[12:1],,3/4-8[8:1],,
4/2-6[8:1],,2/7-4[8:1],,7/1-4[8:1],,1/6-1[8:1],,6b/5-2[8:1],,5b/8-4b[8:1],,8bw4b[8:1],,8b,,
{8}
2-4[12:1],,2/5-1[8:1],6,5/7-3[8:1],8,2-5[8:1]/7,,
2/6-8[12:1],,6/1-3[12:1],,1/7-4[8:1],,7/1-5[8:1],,6-8[12:1]/1,,6/1-5[8:1],,1/6-8[12:1],,6/1-3[12:1],,
1/7h[4:1],,4,6,
35,24,
1xq5[12:1]/5xq1[12:1],,1x<6[8:1]/5x>2[12:1],,
1xq5[12:1]/5xq1[12:1],,1x<6[8:1]/5x>2[12:1],,
1xq5[12:1]/5xq1[12:1],,1x<6[8:1]/5x>2[12:1],,
1xq5[12:1]/5xq1[12:1],,1x<6[8:1]/5x>2[12:1],,
1x-5[8:1]/5,,1/7-3[8:1],,7/4-8[8:1],,4/5-2[8:1],,5/1-5b[8:1],,1b<6[8:1]*>4[8:1],,1bw5b[8:1],,1b,,
37,,
5h[8:1]/6h[8:1],,2h[8:1]/8h[8:1],,46,37,2h[8:1]/8>3[12:1],,6/8<5[12:1],,2/8-4[8:1],,68,,
35,6,4/7h[4:1],,3,5,4/2h[8:1],,1/8-4[8:1],7,8/6-2[8:1],,6/3-8[8:1],,7-5[12:1]/3,,17,,
4h[8:1]/3h[8:1],,7h[8:1]/1h[8:1],,53,62,7h[8:1]/1<6[12:1],,3/1>4[12:1],,7/1-5[8:1],,31,,
6,4,7-4[8:1]/5-2[8:1],,57,,1-5[8:1],8,1/7h[4:1],,E4,E6,E2,E8,Chf[4:1],,8,,
47,6,25,3,47,6,25,3,48,6,15,3,7-4[8:1]/4,6,73,,
2-4[12:1],1,28,7,6,3,25,
{16}
1,4,
1-5[8:1],,8,,17,,6,,34,,2,,1h[8:1]/8h[8:1],,,27,,,
6,5,6,,3,4,2,4,3,4,2,4,1h[4:1],,,,
5,2,6,,3,7,4,7,5,7,5,7,5h[4:1],,,,
8,4,6,,3,5,1h[8:1],,8,,27,,36,,
{32}
E5,E6,E7,E8,E1,E2,E3,E4,E5,E6,E7,E8,E1,E2,E3,E4,
{4}
4x-1b[12:1]/8x-5b[12:1],
{128}
48,Cf,,,,,,,,,,,,,,,,,,,,,,,,,,,,,,,
{32}
2x/6x,3x/7x,4xh[32:5]/8xh[32:5],,,,,,
3x/7x,2x/6x,1xh[32:5]/5xh[32:5],,,,,,
2x/6x,3x/7x,4xh[32:5]/8xh[32:5],,,,,,
3x/7x,2x/6x,1xh[32:5]/5xh[32:5],,,,,,
2x/6x,3x/7x,4xh[32:5]/8xh[32:5],,,,,,
3x/7x,2x/6x,1xh[32:5]/5xh[32:5],,,,,,
2x/6x,3x/7x,4xh[32:5]/8xh[32:5],,,,,,
3x/7x,2x/6x,1xh[32:5]/5xh[32:5],,,,,,
2x/6x,3x/7x,4xh[32:5]/8xh[32:5],,,,,,
3x/7x,2x/6x,1xh[32:5]/5xh[32:5],,,,,,
2x/6x,3x/7x,4xh[32:5]/8xh[32:5],,,,,,
3x/7x,2x/6x,1xh[32:5]/5xh[32:5],,,,,,
2x/6x,3x/7x,4xh[32:5]/8xh[32:5],,,,,,
3x/7x,2x/6x,1xh[32:5]/5xh[32:5],,,,,,
2x/6x,3x/7x,4xh[32:5]/8xh[32:5],,,,,,
{128}
E4f,E8f,B7,B3,B2,B6,E2,E6,,,,,,,,,,,,,,,,,,,,,,,,,
{32}
5x/1x,6x/2x,7xh[32:5]/3xh[32:5],,,,,,
6x/2x,5x/1x,8xh[32:5]/4xh[32:5],,,,,,
5x/1x,6x/2x,7xh[32:5]/3xh[32:5],,,,,,
6x/2x,5x/1x,8xh[32:5]/4xh[32:5],,,,,,
5x/1x,6x/2x,7xh[32:5]/3xh[32:5],,,,,,
6x/2x,5x/1x,8xh[32:5]/4xh[32:5],,,,,,
5x/1x,6x/2x,7xh[32:5]/3xh[32:5],,,,,,
6x/2x,5x/1x,8xh[32:5]/4xh[32:5],,,,,,
5x/1x,6x/2x,7xh[32:5]/3xh[32:5],,,,,,
6x/2x,5x/1x,8xh[32:5]/4xh[32:5],,,,,,
5x/1x,6x/2x,7xh[32:5]/3xh[32:5],,,,,,
6x/2x,5x/1x,8xh[32:5]/4xh[32:5],,,,,,
5x/1x,6x/2x,7xh[32:5]/3xh[32:5],,,,,,
6x/2x,5x/1x,8xh[32:5]/4xh[32:5],,,,,,
5x/1x,6x/2x,7x/3x,,,,,,
{4}
Cf,
4qq8[4:6]/8h[4:1],,7h[4:1],,E7,B6,B5,,
5pp1[4:6]/1h[4:1],,2h[4:1],,E3,B3,B4,,
8qq4[4:6]/4h[4:1],,3h[4:1],,E3,B2,B1,
{8}
2,2h[8:1],B5,,7,7h[8:1],B3,,4,4,4h[8:1]/C,,6h[8:1]/C,,2/C,,8/C,,
17,,1/7h[4:1],,B2,,3,3h[8:3],,5,5h[4:1],,B4,,B3,,2,2,2h[4:1],,E5,,6,6h[8:5],,
B8,B1,B2,B3,B4,B5,,
7h[8:1],5h[8:1],B8,B4,7h[8:1],5h[8:1],E1,E4,7h[8:1],5h[8:1],A1,A3,C,,B6,,
3h[8:1],5h[8:1],B2,B6,3h[8:1],5h[8:1],A1,A7,A8f,,Cf,,A4f,,,
6,5/7h[4:1],,3,4,5/2h[4:1],,6,7,81,2,35,6,4h[8:2]/7h[8:2],,,
81,8h[4:1]/1h[4:1],,,27,2h[4:1]/7,,6,5,3V15-7[8:3],4,3,,8h[4:1],,,,
2-4[8:1],2,6,7,8v5[8:1],8,4,3,2v5[8:1],2,6,7,8-6[8:1],8,4,3,15,15,26,26,
{12}
7x,6x,5x,1x,2x,3x,
{4}
4b/8b-5>4b[8:1],8b/3bq4b[4:1],3b,C,
{8}
7-5[12:1],,7/4-8[8:1],3,4/2-6[8:1],1,7-4[8:1]/2,,
7/3-1[12:1],,3/8-6[12:1],,8/2-5[8:1],,2/8-4[8:1],,3-1[12:1]/8,,3/8-4[8:1],,8/3-1[12:1],,3/8-6[12:1],,
8/2h[4:1],,5,3,
64,5,
{8}
7-5[12:1],,7/8-4[8:1],,8/1-5[8:1],2,1/3-8[8:1],2,3/6-2[8:1],,
6/4-8[8:1],,4/5-7[12:1],,5/3-1[12:1],,3/4-8[8:1],,
4/2-6[8:1],,2/7-4[8:1],,7/1-4[8:1],,1/6-1[8:1],,6b/5-2[8:1],,5b/8-4b[8:1],,8bw4b[8:1],,8b,,
{8}
2-4[12:1],,2/5-1[8:1],6,5/7-3[8:1],8,2-5[8:1]/7,,
2/6-8[12:1],,6/1-3[12:1],,1/7-4[8:1],,7/1-5[8:1],,6-8[12:1]/1,,6/1-5[8:1],,1/6-8[12:1],,6/1-3[12:1],,
1/7h[4:1],,4,6,
35,24,
1xq5b[12:1]/5xq1b[12:1],,1x<6b[8:1]/5x>2b[12:1],,
1xq5b[12:1]/5xq1b[12:1],,1x<6b[8:1]/5x>2b[12:1],,
1xq5b[12:1]/5xq1b[12:1],,1x<6b[8:1]/5x>2b[12:1],,
1xq5b[12:1]/5xq1b[12:1],,1x<6b[8:1]/5x>2b[12:1],,
1x-5[8:1]/5,,1/7-3[8:1],,7/4-8[8:1],,4/5-2[8:1],,5/1-5b[8:1],,1b<6[8:1]*>4[8:1],,1bw5b[8:1],,1b,,
37,,
5h[8:1]/6h[8:1],,2h[8:1]/8h[8:1],,46,37,2h[8:1]/8>3[12:1],,6/8<5[12:1],,2/8-4[8:1],,68,,
35,6,4/7h[4:1],,3,5,4/2h[8:1],,1/8-4[8:1],7,8/6-2[8:1],,6/3-8[8:1],,7-5[12:1]/3,,17,,
4h[8:1]/3h[8:1],,7h[8:1]/1h[8:1],,53,62,7h[8:1]/1<6[12:1],,3/1>4[12:1],,7/1-5[8:1],,31,,
6,4,7-4[8:1]/5-2[8:1],,57,,1-5[8:1],8,1/7h[4:1],,4,3,8v5[8:1]/2v5[8:1],37,
{128}
2b>5b[8:1]/8b<5b[8:1],Cf,,,,,,,,,,,,,,,,,,,,,,,,,,,,,,,
{8}
2b/8b,,
3h[8:1]/7h[8:1],,1h[8:1]/5h[8:1],,2-5[8:1]/6v1[8:1],37,2<7[8:1]/6,,2/4-1[8:1],,4/6-2[8:1],,36,,
1,3,8-4[8:1]/4-2[12:1],,8-6[12:1]/4,,8/1-5[8:1],2,1/7-3[8:1],8,7/4>1[8:1],,4/5<8[8:1],,5/2-6[8:1],,27,,
8h[8:1]/4h[8:1],,6h[8:1]/2h[8:1],,
1-5[8:1]/8,2,1/7-4[8:1],6,7/3-8[8:1],,3/6-1[8:1],,6/2-5[8:1],,2/8-4[8:1],7,8<5b[8:1]*>3b[8:1],,8,,
17,6,45,3,28,28,37,37,
6-2b[8:1]/4-8b[8:1],,
{128}
6<8v2>4[4:5]/4,Cf,,,,,,,,,,,,,,,,,,,,,,,,,,,,,,,
{4},,,,,,
E
&inote_6=(160)
{4},,,,,,,{16},,{64},{128},
{8}
7qq4[4:5]/3h[4:1],,,,2h[4:1],,,,1h[8:5],,,,,,
{8}
1pp4[4:5],,
{4}
5h[4:1],,6h[4:1],,7h[8:5],,,
6-2[8:1],
{64}
6/4-8b[4:15],Cf,,,,,,,,,,,,,,,
{8},
3,2,,6,7,
{16}
2,8,3,,6,,1,7,2,,5,3,6,,2,,7,,7,,8,,8,,1,,1,,2,,2,,
{12}
7bx,1bx,5bx,4b,,4b-8[8:1],,4b,,
{16}
4x,,,,7h[16:3],,,5,6,,4,,4h[16:3],,,6,5,,7qq4[4:3],,7h[4:1],,,,,,
E4,,E3,,E2,,A1,,,,
2h[16:3],,,4,3,,5,,5h[16:3],,,3,4,,2,,2h[16:3],,,4qq8[4:2],3,,5h[8:3],,4,,,,,,,,
7h[16:3],,,1,6,,5,,7h[16:3],,,2,5,,4,,6h[4:1],,,,
4-8[8:1],,3,,2-6[8:1],,,,2,,,,
{8}
5h[8:1]/7h[8:1],,5h[8:1]/3h[8:1],,1h[8:1]/3h[8:1],,28,7,
18,27,36,45,3-8b[8:1]/6-1b[8:1],,
{64}
3b/6b,Cf,,,,,,,,,,,,,,,
{16}
7<4[8:1]/2,,,3,7,,2,,18,,7,,6/4-7[8:1],,3,,4-1[8:1]/2,,3,,46,,5,,37,,
{24}
2,3,4,
{16}
56,,7,,2/8>3[8:1],,,7,8,,6,,45,,6,,17,,2,,3/8-6[8:1],,8-2[8:1],,8x-4b[8:1],,8x,,8x,,,,
15,,6,,
2>5[8:1]/7,,,6,2,,7,,81,,2,,3/5-2[8:1],,6,,5-8[8:1]/7,,6,,53,,4,,62,,
{24}
7,6,5,
{16}
43,,2,,7/1<6[8:1],,,2,1,,3,,54,,3,,82,,7,,46,,35,,28,,1/7h[4:1],,
{32}
E1,E8,E7,E6,E5,E4,E3,E2,E1/Cf,,,,,,,,
{8}
6h[4:1],,5-7[8:1],,B4,,3,3h[4:1],,4,4-2[8:1],,B5,,B6,,7,7,7-1[8:1],,B3,,
2,2h[4:1],,7,6,5h[4:1],E3,E2,E1,,
57,8h[8:1],,46,7h[8:1],,35,6h[8:1],,24,5h[8:1],,E1/B1/E2,,B5/E5/E6,,
24,3h[8:1],,57,6h[8:1],,4-8[8:1]/5,36,4b/5-1[8:1],,5b-7b[12:1]/4-2b[12:1],,4b/5b,,,
{16}
6,,5/7h[16:3],,,4,6,,3,,4/2h[16:3],,,5,3,,6,,47,,6,5,6,,47,,4-8[8:1]/7-5[8:1],,,,,,,,
7/1h[16:3],,,6,2,,7,,3/8h[16:3],,,3,7,,2,,16,,7,4,6pp1[8:3],,37,,46,,,,,,,,
28,,,7,5,,6,,3,4,2,4,3h[8:1],,8,,17,,,2,4,,3,,7,5,6,5,7h[8:1],,3,,
2h[8:1]/4,,,6,7h[8:1]/5,,,4,
{12}
7,5,6,3,4,2,
{8}
1b-3b[8:1]/8b-6b[8:1],,1b-5b[8:1]/8b-4b[8:1],,1b/8b,,Cf,,
{16}
5h[16:3]/2,,,3,4-2[8:1],,2-8v3[4:1],,45,,6,,7-5[8:1],,,,
2/7-1[8:1],,3,3,7pp6[4:1],,4,4,7,,3,,
2>5[4:1],,,,6x-4-2b[4:1],,,,1x-3-5[4:1],,,,6x>2b[4:1],,,,1x,,,,7h[4:1],,,,
8-4[8:1],,1,,8/2<7[8:1],,3,,25,,,,
8/6h[16:3],,,5,7-4[8:1],,4-6-8[4:1],,73,,2,,1-3[12:1],,,,
8/1-7[12:1],,6,6,1-5[8:1],,4,4,1,,6,,7<3[4:1],,,,3>7[4:1],,,,7<3[4:1],,,,3>7[4:1],,,,
7,,,,Cf/B3/A3,,,,Cf/B1/A1,,,,A7/B7/Cf,,,,Cf/B5/A5,,,,
37,,6,4,5-7-4-8[8:3],,3,,25,,3,,2>5[8:1],,,,
7/2<7[8:1],,6,6,2qq3[4:1],,5,5,2,,6,,
7<4[4:1],,,,3x-5-7b[4:1],,,,8x-6-4[4:1],,,,3x<7b[4:1],,,,8x,,,,2h[4:1],,,,
8-4[8:1],,7,,8/6v1[8:1],,5,,62,,,,
8xh[16:3]/3xh[8:1],,,,1xh[16:2]/6xh[8:1],,,,8xh[8:1]/3xh[8:1],,,,1xh[8:1]/6xh[8:1],,,,
4xh[8:1]/8xh[16:3],,,,1xh[16:3]/5xh[8:1],,,,4xh[8:1]/8xh[8:1],,,,
1x-7[12:1]/5x,,,,1-3b[12:1]/4,,,,5-3[12:1]/1,,,,2/5-7b[12:1],,,,1-5[8:1]/5,,,,
1b>4[8:1]*<6[8:1],,,,1bqq5b[8:2],,,,8b/1b,,,,,,,,
7/3h[16:3],,,6,4,,5,,37,,6,4,5-7-1[4:1],,3,,1-3-5[4:1],,,,5,,,,2h[4:1],,,,
6-8[8:1],,1,,6/2h[16:3],,,7,3,,5,,26,,7,3,5-1[8:1],,4,,
5b-7[12:1]/2-4[12:1],,,,5b/2-6[8:1],,,,2b/8-3b[8:1]*-5b[8:1],,,,8b,,,,
4h[16:3]/6,,,7,5,,8,,46,,7,5,8-6-4[4:1],,3,,4-2-8[4:1],,,,8,,,,3h[4:1],,,,
7<4[8:1],,4,,7/3v8b[8:1],,,,2-4-1-5[4:1],,,,28,,7,,6h[8:1],,,,
45,,36,,27,,18,,Ch[4:1]/B7/B6/E7/B2/B3/E3,,,,,,,,
{8}
5h[8:1],C,4h[8:1],C,6h[8:1],C,3h[8:1],C,
7h[8:1],C,2h[8:1],C,8h[8:1],C,1<6[8:1],,
{48}
A1f/2x,3x,4x,5x-8[8:1],,,,,,,,,
{8}
4,3,2,1<6[8:1],8,
{48}
A1f/2x,3x,4x,5x-8[8:1],,,,,,,,,
{16}
4,,3,,2,,17,,6,,4h[8:1]/5h[8:1],,,36,,,
7,5,6h[8:1],,4,5,3,6,2,7,1,8,2h[8:1],,,,8,1,7h[8:1],,1,8,2,7,3,6,4,5,3h[8:1],,,,
5,4,6-3[8:1],,3,,62,,1,,8,,7h[8:1],,
{32}
1,2,3,4,5,6,7,8,
{24}
1,2,3,4,5,6,
{12}
7x,8x,1x,
{16}
2x/7x,,,,
8-6-4[8:1]/1,,,3,8,,2,,15,,6,,7/4v7[8:1],,3,,4v1b[8:1]/2,,3,,46,,5,,37,,
{24}
2,3,4,
{16}
56,,7,,2/8-2>3[8:1],,,7,8,,6,,45,,6,,17,,2,,3/8-4[8:1],,7-5[8:1],,8x<2b[4:1],,7x,,8x,,,,
1,,8,,
2>5[8:1]/7,,,6,2,,7,,81,,2,,3/5v2[8:1],,6,,5v8b[8:1]/7,,6,,53,,4,,62,,
{24}
7,6,5,
{16}
43,,2,,7/1-7<6[8:1],,,2,1,,3,,54,,3,,82,,7,,46,,35,,
2/4-8-2-5b[4:1],,35,,4b/6bh[4:2],,,,,,,,
{4}
7>5[4:6],,,,,,,,6pp1[4:3],,,,2pp5[4:3],,,,6-8-5-1[4:3],4,3h[4:1],,
2v4-6[4:2],8,7h[4:1],,5h[4:1]/6h[4:1],,3h[4:1]/4h[4:1],,
2h[8:1]/B7,B5/4h[8:1],B4/5,7/B2,
{8}
6/4h[4:1],,7-5[8:1],,B3,,2,2h[4:1],,4,4-6[8:1],,4-2[8:1],,4,,5,5,5-7[8:1],,45,,
3,3h[4:1],,5,6,7h[4:1],E3,E4,E5,,
46,7h[8:1],5,46,8h[8:1],5,46,3h[8:1],5,46,2h[8:1],5,B2/E3/B3,,E7/B7/B6,,
18,7h[8:1],5,18,2h[8:1],4,1-5[8:1]/8,27,1b/8-4[8:1],,8b-6b[12:1]/1-3b[12:1],,8b/1b,,,
{16}
4,,5/3h[16:3],,,6,5,,7,,5h[16:3]/3,,,2,4,,3,,26,,3,5,4,,6,,3h[4:1]/7h[4:1],,,,,,
6,,1/5h[16:3],,,2,4,,3,,4h[16:3]/8,,,7,5,,6,,35,,2,4,3,,45,,
7-4[8:1]/2-5[8:1],,,,27,,,,
3/6<8b[12:1],,,4,6,,2,1,3,6,5,7,2h[8:1],,8,,
3>1b[12:1]/7,,,6,3,,7,8,6,3,4,2,7h[8:1],,3,,
2h[8:1]/5,,,6,7h[8:1]/4,,,3,
{12}
7,5,6,3,4,2,
{8}
1b-3b[8:1]/8b-6b[8:1],,1b-5b[8:1]/8b-4b[8:1],,1b/8b,,Cf,,
{16}
5h[16:3]/2,,,3,4-2[8:1],,2-8v3[4:1],,45,,6,,7-5[8:1],,,,
2/7-1[8:1],,3,3,7pp6[4:1],,4,4,7,,3,,
2>5[4:1],,,,6x-4-2b[4:1],,,,1x-3-5[4:1],,,,6x>2b[4:1],,,,1x,,,,7h[4:1],,,,
8-4[8:1],,1,,8/2<7[8:1],,3,,25,,,,
8/6h[16:3],,,5,7-4[8:1],,4-6-8[4:1],,73,,2,,1-3[12:1],,,,
8/1-7[12:1],,6,6,1-5[8:1],,4,4,1,,6,,7<3[4:1],,,,3>7[4:1],,,,7<3[4:1],,,,3>7[4:1],,,,
7,,,,Cf/B3/A3,,,,Cf/B1/A1,,,,A7/B7/Cf,,,,Cf/B5/A5,,,,
37,,6,4,5-7-4-8[8:3],,3,,25,,3,,2>5[8:1],,,,
7/2<7[8:1],,6,6,2qq3[4:1],,5,5,2,,6,,
7<4[4:1],,,,3x-5-7b[4:1],,,,8x-6-4[4:1],,,,3x<7b[4:1],,,,8x,,,,2h[4:1],,,,
8-4[8:1],,7,,8/6v1[8:1],,5,,62,,,,
8xh[16:3]/3xh[8:1],,,,1xh[16:2]/6xh[8:1],,,,8xh[8:1]/3xh[8:1],,,,1xh[8:1]/6xh[8:1],,,,
4xh[8:1]/8xh[16:3],,,,1xh[16:3]/5xh[8:1],,,,4xh[8:1]/8xh[8:1],,,,
1-7[12:1]/5,,,,1-3b[12:1]/4,,,,5-3[12:1]/1,,,,2/5-7b[12:1],,,,1-5[8:1]/5,,,,
1b>4[8:1]*<6[8:1],,,,1bqq5b[8:2],,,,8b/1b,,,,,,,,
7/3h[16:3],,,6,4,,5,,37,,6,4,5-7-1[4:1],,3,,1-3-5[4:1],,,,5,,,,2h[4:1],,,,
6-8[8:1],,1,,6/2h[16:3],,,7,3,,5,,26,,7,3,5-1[8:1],,4,,
5b-7[12:1]/2-4[12:1],,,,5b/2-6[8:1],,,,2b/8-3b[8:1]*-5b[8:1],,,,8b,,,,
4h[16:3]/6,,,7,5,,8,,46,,7,5,8-6-4[4:1],,3,,4-2-8[4:1],,,,8,,,,3h[4:1],,,,
7<4[8:1],,4,,7/3v8b[8:1],,,,2-4-1-5[4:1],,,,28,,7,,6h[8:1],,,,
45,,36,,27,,18,,
{32}
8bxh[8:1]/2b,3,4,5,,,,,1bxh[8:1]/7b,6,5,4,,,,,
{16}
2/8<5[8:1],,,4,8-4[8:1],,3,,28,,
{24}
3,2,1,
{16}
8/5-1[8:1],,6,,5/2>5[8:1],,,,2/8-4[8:1],,,,18,,,,
2<7[8:1]/5,,36,,25,,,6,5-8[8:1],,7,,35,,
{24}
4,3,2,
{8}
1/7-3b[8:1],6,8-4b[8:1]/7b,,8b/1-5b[8:1],,1b/2-6b[8:1],,2b/8,,
{16}
5/7-5[8:1],,,4,7-1[8:1],,3,,2v5[8:1]/7,,3,,2/8-4[8:1],,7,,8-3[8:1]*-2>3[8:1],,,,
8-6>5[8:1]*-5[8:1],,,,8,,,,34,,56,,8/7v4[8:1],,,1,7,,2,,5,6,7,8,1,2,3,4,
{32}
7,6,5,4,3,2,1,8,7,6,5,4,3,2,1,8,
{4}
3/7b-3[8:1],7b/1-5v2-4b[4:6]*-5v8-6b[4:6],,,,E
