&title=我要玩舞萌DX &artist=AI &first=0.22 &des=D.N.T. not the maip &lv_7=12+? &inote_7=(115), {16},,5x<8[16:1]/3x,5x/3x,5bs1[8:1]b/3h[8:1]b,,5,,,,8b-5qq5[4:1],,,, {16}8/3,,,,2qq2[8:1]b,2,2b>5[8:1]b/7b,,7-3-7[4:1],,,,7b,,A3,, {16}1-6[8:1],,1-4[8:1]b,,,,,,,,5-7-3-1[4:1],3,,6b/4b,,, {16}8,,8-6[8:1],,8v2-4[4:1]b,,,,,,,,,, {16}1s5[8:1]/5s1[8:1]b,,,,,,,, {16}3V58[4:1]/8,,1/2,,7b,7b,7b,7b,7b,, {16}3-8[8:1],,6-1[8:1],,3,,6,,2,, {48}1b/8b,2b/7b,3b/6b,4b/5b,