&title=MIRACLE RUSH
&artist=StylipS/TVアニメ「咲-Saki-阿知賀編 episode of side-A」OPテーマ
&first=0.56
&des=Ragna
&wholebpm=168
&demo_seek=60.2
&demo_len=24.8
&des_5=Ragna
&lv_5=13
&inote_5=(168){16}2,3,4,5,{8}
7h[4:1],,4,6h[4:1],,3,5h[8:3],,
,4,3,2,18,7,6,5V74[2:1]/3V14[2:1],
,,,,,,,,
8b-5[8:1]*z4[8:1],,,,3,2,1/8<1[16:5],7,
6/8b,,,,6,7,1>8[16:5]/8,2,
3/1b,,,,3,2,18,7,
6v1[8:1]/4v1[8:1],,46,,2,3,45,6,
2bpp8[16:7]/7bqq1[16:7],,,,,,,,
2-8[8:1]/7,,5,,6-1[8:1]/1,,3,,
4-8[8:1]/8,,5,,26,,1-3[8:1],5-7[8:1],
{8}1v4[8:1],5v8[8:1],1,5,{16}1,2,3,45,6,7,{8}1b/8,
,3/6b,3b/6,,,,,,
1s5[4:1]*s5[4:1],,,,8,8,3p2[4:1]*p2[4:1],3,
,,,{16}6,7,{8}8-4[8:1]*-4[8:1],1v3[8:1]*v3[8:1],8,1,
5-1[8:1]*-1[8:1],,54,,28,2pp5[8:3]/8qq5[8:3],,2b/8b,
,,,,4/6b,,1b/5,,
2h[4:1]/8b,,3h[4:1],,4h[4:1],,5h[4:1],,
6,5,4,6,37,,1b-5[8:1]/8,,
1b/7h[4:1],,6h[4:1],,5h[4:1],,4h[4:1],,
3,4,5,3,26,,8b-4[8:1]/1,,
8b/2h[4:1],,3h[4:1],,4V25[4:1],,5,,
7h[4:1],,6h[4:1],,5V74[4:1],,4,,
2h[4:1],,3,3-6[8:1],,8,,1h[4:1],
,8,2V41[4:1]/7V58[4:1],,2b/7b,,,,
37,6,4,5,26,3,5,4,
36,7,18,2,36,,4/5b-1[8:1],,
4/5b,3,2,8,37,6,4,5,
36,2,18,7,36,,4b-8[8:1]/5,,
4b/5,6,6,1,1-4[8:1]*-6[8:1],,1,,
,3,3,8,8-3[8:1]*-5[8:1],,8,,
4,5,36,2,1,8,7,3b/6b,
,,45,,86,,12,,
3-8[8:1]/4,,5,,6/1-5[8:1],6,6,,
7-4[8:1]/4,,3,,5^8[8:1]/2,2,2,,
4p8[4:1],,8p4[4:1],,4V28[4:1],,8V64[4:1],,
4>8[4:1],,8<4[4:1],,4,,8,,
7/3-7[8:1],,6,,8^3[8:1]/5,5,5,,
6-3[8:1]/4,,2,,1,2,8,7,
3/6-3[8:1],,2,2-7[8:1],,6^3[8:1],,2^7[8:1],
,,,5,6,4,3,2b>8[2:1]/7b<1[2:1],
,,,,,,,,
1h/7h,2h/8h,1h/7h,2h/8h,1-5[8:1],8-6[8:1],1,8,
{32}4b,3,2,1,8,7,6,5,{8}4,,8-4[8:1],1-3[8:1],8,1,
{32}5b,6,7,8,1,2,3,4,{8}5,,2-4[8:1],5-1[8:1],2,5,
3h[8:3],,8-4[8:1],8,2-8[8:1],2,5^8[8:1],5,1b>8[16:7],,,,,,,,
7,6,5-1[8:1],4,3h[8:3],,8,8,
2-5[8:1],7-4[8:1],2,7,2,,36,27,
1-3[8:1]/8-6[8:1],,1-5[8:1]/8-4[8:1],,18,,36,3b/6,
,2/8b,2b/8,,7-4[8:1],8-3[8:1],7,8,
{32}5b,6,7,8,1,2,3,4,{8}5,,2-5[8:1],1-6[8:1],2,1,
{32}4b,3,2,1,8,7,6,5,{8}4,,6-1[8:1],2-5[8:1],6,2,
8-3[8:1]*-5[8:1],,8,,6-1[8:1],6,3^6[8:1],3,8b<1[16:7],,,,,,,,
5/2^4[8:1],,7,,8^5[8:1]/5,,2,,
8>4[8:1]/4,,6,,75,,8^6[8:1],4^2[8:1],
8v5[8:1],4v1[8:1],8,4,{16}8,7,6,54,3,2,{8}1/8b,
,3b/6,3/6b,,,,,,
8-3[8:1]*-5[8:1],,,,6-2[8:1]*-2[8:1],6,4<1[16:3]*<1[16:3],4,
,,,{16}5,6,{8}7v4[8:1]*v4[8:1],4<1[16:3]*<1[16:3],7,1,
2q3[4:1]*q3[4:1],,28,,5,5<5[4:3]*>5[4:3],,5b,
,,,,,,,,
E
