&title=Stardust:RAY
&artist=kanone / BlackY
&first=0
&des=albertoBradish
&des_6=
&lv_5=14+
&inote_5=(164){4},{1},,,{4},,{16}5x,
6x,7x,8x,
{2}3/1bx-5[8:1],{16}1/3,,,8/6,,,{8}3bxV14-7-5b[4:3]/4bx-8-4-7-5[4:3],
,,,,,,,,{2}6/8b-4[8:1],
{16}1/3,,,4/2,,,{8}5/7,
{16}7bx/6bx,,,3bx/2bx,,,{8}4bxz8[16:3]/5bxs1[16:3],,,,,{4}4x/8bx<5[8:1],
{16}4,3,2,1,4/8,,,6/2,,,{8}6bxV85-2-4[4:3]/5bx-1-5-2-4b[4:3],
,,,,,,,,{4}5x/1bx>4[8:1],
{16}5,6,7,8,5/1,,,3/7,,,{8}5/4,
{16}6b/7b,,,2b/3b,,,{8}1bp4[4:1]/8bq5[4:1],,,,,3,
{16}4,3,,6,{8}5,4-8[8:1],3,{4}4x>6[2:1],
1<6[4:1],6>8[2:1],3x>8[4:1],8,
{16}4h[16:3],,,3h[16:3],,,{8}1qq4[8:3],{16},,,,,,,,6h[16:3],
,,5h[16:3],,,{8}4,{16}3h[16:3],,,4h[16:3],,,{8}5,
4x/5x,{16}6,5,7,5,{8}8,5/4,{16}3,4,2,4,{8}1,
7/8,5,2/1,4,{16}5,6,5,6,{32}4,3,2,1,8,7,6,5,
{1}4/Ch[4:3],
{48}8bx/B2f,B3,B4,E5,,,,,,2bx/B8f,B7,B6,{8}E6,3bxh[8:3]/Ch[8:3],,,,,{4}Cf,
{8}7/1,{16}2,1,{8}2,{16}6,5,{8}6,4/3,
8,7,{32}1/6,2,3,4,{8}5,{16}7,8,7,8,{4}1/5x-1[8:1],
{8}5-7[8:1],{16}2,2,{8}5,{16}3,3,{8}5x-1[8:1],5xV73[8:1],,,{4}2>5[8:1]*<7[8:1],
2x,{12}6,8,7,1-7[8:1],3,2,
1b-3[8:1],5,5,1b-7[8:1],5,5,1b-5[8:1],5,5,1b,{48},,,,,,,,{16}3,
4,3,4,2,1,{8}1,3-6[8:1],4,{4}3x/6,
{8}7/8,5,{16}3,4,5,6,2,2,8,8,{4}1-5[8:1],
{1}5bh[1:1]/1b<7-3<6[8:5]`Cf,
{4}Cf,{8}4-2[8:1],3,4/5-1[8:1],{16}6,6,{4}5<8[8:1]*>2[8:1],
5,{16}1x-3b[8:1],5x-1-3-6-8[16:7],{8}1x,,,,,1-5[8:1],
2,1/3>8[8:1],4,6>3[8:1],{16}7,7,{4}1,
{8}1-5[8:1],8,1x/2x,3,{48}4bx/D6f,A6,D7,A7,{12}D8,{48},8bx/D2f,A2,D3,A3,D4,,,,,,,,,,,{8}5x/2xqq5[2:1],
4x/3x,5,5,{16}6,6,,7,{8}7,8,
1x/3x,{16}4,4,,5,{8}5,{16}1/6,2,3,4,1/5,8,7,6,
{8}5/3,{24}3,4,3,{8}4,{24}6,5,6,{8}5-2[8:1]*-8[8:1],4/6,{4}5,
3bh[2:1]/7bh[4:3],{8},,,,1-5[8:1],5>7[8:3],
{4}1b`Cf,7-3<5b[4:1],5-1<7[4:1],7<3>7[2:1],
3bx>7[4:1],7x<3b[4:1],3xV17[4:1],{8}7,6,
{4}5<1[8:1],3/5b,4>8[8:1],6/4b,
7-5[8:1],3/7-3[8:1],7/1,{24}5/1,6/2,7/3,8/4,,,{2}Ch[2:1],
{12}E2,E3,E4,E8,E7,E6,
{8}2h[8:1],{48}B2,C,,,,,{8}7h[8:1],{48}B7,C,,,,,{8}3h[8:1],{48}B3,C,,,,,{8}6h[8:1],{48}B6,C,,,,,{8}4h[48:5],
{48}B4,B3,{12}B2,1h[48:5],{48},,B1,B8,{12}B7,{8}6h[48:5],{48}B6,B5,{12}B4,{48}2x,,,1x,,,{16}8x,7x,
{8}6x/5x,8,3x/4x>5[8:3],1,{2}4x/6xh[4:1],
{4}Cf,{16}3,7,1,7,3,7,5,7,3,7,1,7,
1-5[8:1],,,2,{8}1,3,4q8[8:1],5,{4}4/6,
Cf,{16}6,2,8,2,6,2,4,2,6,2,8,2,
8-4[8:1],,,7,{8}8,6,5V31[8:1],4,{4}5/3,
{16}3,4,2,6,5,7,2,1,3,7,8,6,{24}4x,5,4,5x,{48},,,,{16}6,
5,7,3,4,2,7,8,6,2,1,3,{24}8x,7,6,1x,2,3,
{16}6,{32}1,2,{16}3,6,{32}1,2,{16}3,{24}7,6,5,4,3,2,8,7,6,5,4,3,2,{48},,,,1b,
2x/8x,{24}3x/7x,{48},,,,,1b,2x/8x,3x/7x,{8}4x/6x,{48}1b,2x/8x,3x/7x,4x/6x,{24}5xh[192:101],,,,,,,,,,,,,{1}1b-6-2-5[4:13]*-4-8-5[4:13]`Cf,
,,{4},,{16},,{24}4,
5,4,{4}6x/3x,
3/E6,{8}3/E7,C,3/E8,C,{4}3/E1,
{8}6/E4,C,6/E3,C,{4}6/E2,{8}6/E1,C,
3/E8,3/E7,3/E6,3/E5,2/Ch[2:1],2,2,2,
{24}E1,E2,E3,E4,E5,E6,E7,E8,E1,E2,E3,E4,8/E5,7,6,5,4,3,2,1,8,7,6,5,
{2}8b-3[8:1]/4bx-7[8:1],{16}2bx/E8/B7,,,6bx/E4/B3,,,{8}8bxz4-2-6[8:5]*-4b[8:1],
,,,,,,,,{2}1bx-6[8:1]/5bx-2[8:1],
{16}7b/E2/B2,,,3b/E6/B6,,,{8}8b/E3/B3,
{16}2bx/E7/B7/B6,,,7bx/E3/B2/B3,,,{8}1bx/Cf,,,,,{2}1bp5[8:1]/5bp1[8:1],
{16}7bx/E2/B2,,,3bx/E6/B6,,,{8}1bx-5-8-3-6[8:5]*s5b[16:3],
,,,,,,,,{2}8b-3[8:1]/4b-7[8:1],
{16}2b/E8/B7,,,6b/E4/B3,,,{8}1b/E7/B6,
{16}7bx/E3/B2/B3,,,2bx/E7/B7/B6,,,{8}8bx/Cfh[8:5],{1},,{4},,{8}4,
{24}B6,B5,B4,{8}B3,1,{24}B2,B1,B8,B7,,,{8}4,3,
{16}2h[16:3],,,3h[16:3],,,4,3,2,1,8,7,6,5,{8}4h[8:1],
{16}2,3,2,1,2,8,2,7,2-4[8:1],6,2,5,,,,,6,
4,6,7,6,8,6,1,6-3[8:1],2,6,3,{4}6,
{32}1/5,6/2,7/3,8/4,,,,,7/3,2/6,1/5,8/4,,,,,7,6,5,4,8,7,6,5,1,8,7,6,2,1,8,7,
{16}3,4,5,6,7/8,1,2,3,{32}1,8,7,6,1,2,3,4,1,8,7,6,1/5,2,3,4,
{1}5/Ch[1:1],
{4}E7/E3,B7/B6/B2/B3,E7/B7/B8/B4/B3/E3,E8/B8/B1/E2/E4/B4/B5/E6,
{8}7/1b-5[8:1],{16}5,5,{8}1<6[8:1],7,{4}1/5>2[8:1]*-1[8:1],5,
{16}7,8,{8}6,{16}2/1,2/1,,8h[16:3],{48},,,,,,{24}7,6,5,{8}4/8,2,
4/7-5[8:1],{16}1,1,{8}7-1[8:1],4,{16}2/7-4[8:1],3,{8}4,{16}7/3v8[8:1],2,{8}1,
{16}3-5[8:1],5,,7,{8}3>8[8:1],1,7/3,5,{24}5/1,6,7,8/3,,,{8}2/8b-4[8:1],
{16}4,4,{8}8>3[8:1],2,{4}8/4<7[8:1]*-8[8:1],4,
{16}2,1,{8}3,{16}7/8,7/8,,1h[16:3],{48},,,,,,{24}2,3,4,{4}1/5>7[2:1]*-1b[8:1],
A5f,7bx-3b[8:1]*<3[2:1],A7f,3bx-7b[8:1]*V17[2:1],
A3f,7bx,{16}5,4,3,2,1,8,7,6,
{8}5/1b,{16}7<4[8:1],8,7,8,1,2,3,1x,3,4,3,1x,3,4,
3,5,3,5,4,6,4,6,8,7,,6/5>2[8:1],,1,8,7,
6-1[8:1],,,1,{8}6/1,2,{16}3,5,4,6,2,7,3,8,
{24}4,3,2,1,8,7,3,2,1,8,7,6,{16}5/3,4-1[16:1]*-7[16:1],,5/3,{4}4x,
{16}8-4<7-3[16:9],8,,4,{8}4>8-4b[16:5],4x,{2}A4f,
{16}1-5>2-6[16:9],1,,5,{8}5<1-5b[16:5],5x,{2}A5f,
{16}2,7,3,6,1,8,3,5,{24}4/3,5,6,7,8,1,5,4,3,2,1,8,
{8}7b/5b,{16}1b/2b,3b/8b,,5b/6b,{8}7b/4b,{2}1xw5[6:1],
{16}Cf/8x-4[16:1],,,2-5[16:1],,,{8}6,{2}1x/B1,
{16}4/2pp4[8:1],,,,,6,6,7V53[4:1],{2}2x/B2,
{16}1-5[16:1],,,7-4[16:1],,,{8}3,{2}8x/B8,
{8}5/7,{24}6,4,6,4,6,4,6,4,6,{8}3/5,{24}7-4[8:1],5,7,5,7,5,7,{48},,,,{16}1-5[16:1],
,,7-4[16:1],,,{8}3,{2}8x/B8,
{16}5/7qq5[8:1],,,,,3,3,2V46[4:1],{2}7x/B7,
{16}8-4[16:1],,,2-5[16:1],,,{8}6,{2}1x/B1,
{8}4/2,{24}3,5,3,5,3,5,3,5,3,{8}6/4,{24}7,5,7,5,7,5,7,5,7,
{8}4bh[8:1],{16}6,6,4h[8:1],8,{8}8,{4}5/4h[8:1],{16}5,5,3,3,
{8}1h[8:1],{16}3,3,1h[8:1],5,{8}5,{16}8,7,6,5,4,3,2,1,
{8}8bh[8:1],{16}3,3,8h[8:1],5,{8}5,{4}1/8h[8:1],{16}1,1,7,7,
{8}5h[8:1],{16}8,8,5h[8:1],2,{8}2,{16}4,3,2,1,8,7,6,5,
{8}4b/3b,{16}3,4,2,4,{8}1,4/5,{16}6,5,7,5,{8}8,
1b/3b,{16}2,3,1,4,{8}8,8/6,{16}7,6,8,5,{8}1,
4b/3b,{16}2,4,1,5,8,6,{8}7b,5/6,3/4,1/2,
{48}8,7x,,1,2x,,8,7x,,1,2x,,6,5x,,2,3x,,6,5x,,2,3x,,8b/4,7x,6,5,,,,,,1b/5,2,3,{8}4,{48}5b/1b,6b/2b,7b/3b,4b/8bV25q7-3b[16:13],
E
