&title=ヒビカセ
&artist=GigaReol
&first=0
&des_1=板凳太
&des_2=板凳太
&des_3=板凳太
&des_4=板凳太
&des_5=板凳太
&des_6=板凳太
&lv_6=13+
&des_7=板凳太
&des=板凳太
&clock_count=4
&inote_6=(140){4},,,,{8}2,
{8},,2,2,,,2,
,2,,2,{2}2,
{8}2,{4},{8}2,2,{4},{8}2,
,2,,2,{4}2-7[12:1],8b,
4/2h[4:1],{8}4,2,{4}4/2h[4:1],{8}4,2h[8:1],
5,2h[8:1],5,2,{4}5/2h[4:1],5,
6/2h[4:1],{8}6,2,{4}6/2h[4:1],{8}6,2,
{4}4h[8:1]/3h[8:1],3h[8:1]/4h[8:1],{2}4-6[8:1]/3-5[8:1],
{4}8b/1b,{8}2/4,3,{4}6h[16:3]/5>2[8:1],5,
{8}7<4[8:1],1,{4}8h[4:1],{8}3,{16}2,2,{8}5,4,
{4}8/5,{8}4/6,5,{4}2h[16:3]/3<6[8:1],3>8[16:3],
7>3[16:3],4,{8}6h[16:1],4h[384:1],5h[16:1],2h[16:1],
{4}3/4,{8}2/4,3,{4}6h[16:3]/5>2[8:1],5,
{8}7qq5[8:1],8,{4}1h[4:1],{8}6,{16}4,4,{8}7,5,
{4}7h[8:1]/6h[8:1],4h[8:1]/3h[8:1],6h[8:1]/8h[8:1],4h[8:1]/2h[8:1],
{8}4/7h[8:1],4,4/1h[8:1],4,4qq2[8:1]/8qq6[8:1],8/4,{4},{8}5/2,
3,6/5,7,{4}2/1>4[8:1],{8}1/8,8,
5/7,6,4/2,3,{4}6/5<8[8:1],{8}5/3,3,
1/2,3,4/5,6,{4}7/8<5[8:1],{8}8/4,4,
5/3,2,8/1,7,{16}6h[8:1]/5h[8:1],{8},{16}5h[8:1]/4h[8:1],{8},4/3,
4/3,2,5/4,6,{4}7/5-1[8:1],{8}4/5,4,
1/2,8,5/7,4,{4}3/4-8[8:1],{8}4/6,6,
7,6/4>6[8:3],3/5,4/2h[8:3],,,,3,
{16}4h[8:1]/5h[8:1],{8},{16}6h[8:1]/5h[8:1],{8},7/6,8,3/4,{4}2/1-4[8:1],
1b/4,{8}5-8[8:1]/8-5[8:1],1,{4}8/5,{8}1-4[8:1],2,
1/4-1[8:1],6,8-5[8:1],7,{4}8/5-8[8:1],{8}1h[384:1],2,
{16}3V52[4:1],{8},{16}1,{8}3,8,7-5[8:1],7-1[8:1],{4}7,
{16}4-1[8:1],{8},{16}5,{8}4,6,6-1[8:1],5,{4}3-6[8:1],
3/6,{8}7-2[8:1]/2-7[8:1],8/1,{4}2/7,{8}6-3[8:1],5,
6/3-6[8:1],1,7-2[8:1],1,{4}7/2-7[8:1],{8}3h[384:1],4,
{16}5>2[8:1],{8},{16}6,{8}5,7,7-4[8:1],4-6[8:1],3,2,
1h[8:1],{24}7,6,5,{16}3,3,4,2,8-4[8:1],1,{8}6,8/5V71[8:1]*V31[8:1],6,
{4}5b,{8}8/2,3,{16}6>3[8:1],5,,5,{8}6,2,
2/1,3,5/4,6,{16}7>4[8:1]/8V24[8:1],1,{8},{4}8/7,
{8}6/5,7,4/3,2,{16}8p4[8:1],1,,2,{8}8,3,
5/3,2,6/5,7,{16}8<5[8:1]/1V75[8:1],2,{8},{4}8/1,
{8}3/4,2,8/7,6,{16}4>1[8:1],5,,6,{8}4,7,
8/6,5,3/4,1,{16}7-3[8:1],8,,1,{8}7,2,
{4}2>5[8:1]/1q5[8:1],1b/2b,2p6[8:1]/1<6[8:1],2b/1b,
{8}2/1-5[8:1],8,{16}3,3h[8:1],,4,{8}4<7[8:1]*>1[8:1],5/3,{4}4w8[8:1],
4b,{8}6/2,4,{16}7<4[8:1],5,,3,{8}7,2,
1/4,3,5/6,8,{16}1<6[8:1]/2-6[8:1],3,{8},{4}1/2,
{8}4/3,2,7/5,8,{16}2>5[8:1],1,,8,{8}2,7,
6/5,1,3/4,7,{16}6-1[8:1]/5-1[8:1],4,{8},{4}5/6,
{8}8/2,3,1/6,5,{16}4/8-4[8:1],{8},{16}1,{8}8,2,
4/3,5/4,{16}6,5,,4b/7h[16:5],{8},6h[384:1],8h[384:1],2h[384:1],
{4}4>1[8:1]/1-5[8:1],1b/4b,8-4[8:1]/4<7[8:1],8b/4b,
{8}3/8h[8:1],{16}5,6h[8:1],,3,{8}4h[8:1],1-6[8:1],7/3,{4}1/4-8[8:1],
{8}2b,{4},{8}2,2,{4},{8}2,
,2,,2,{2}2,
{8}2,{4},{8}2,2,{4},{8}2,
,2,,2,{4}2-7[12:1],4b,
3/4-6[8:1],2,1-3[8:1],7,
6-8[8:1],4,3-5[8:1],1h[384:1],
7<4[8:1],5,3>8[8:1],1,
7h[8:1],7h[8:1]/6h[8:1],{8}7/6,6/5,5/4z8[16:9],3/4s8[16:7]*s8[16:7],
{4},,,{8}7/1,{24}2,3,4,
{8}5/8b,7,4/3,2,{16}7-4[8:1],8,,8,{8}7,1,
4/2,3,5/6,8,{16}2V48[16:3],1-5[16:1],3,,{8}2/1,,
7,6,5/1,2,{16}5-1[8:1],3,,6,{8}5,7,
7/8,6,3/4,2,{16}8-4[8:1],1V37[8:1],7,,{8}1/8,,
5,6,7/4,3,{16}1q5[8:1],2,,8,{8}1,7,
6/5,2,4/3,8,{16}1-5[8:1]*-5[8:1],6,2,,{8}1/7,8,
{4}8>3[8:1]*-4[8:1],8b,1<6[8:1]*-5[8:1],1b,
{8}8/1-5[8:1],2,{16}6,6h[8:1],,4,{8}4-8[8:1],3/5,4/2,{24}1,2,3,
{8}4/8b,7,6/5,1,{16}2V48[16:3],4,,5,{8}2,6,
1/7,5,1/2,4,{16}7-3[8:1],8V25[8:1],6,,{8}7/8,,
6,7,1/8,2,{16}4-8[8:1],3,,5,{8}4,6,
7/8,6,4/5,3,{16}1-5[8:1],2V48[8:1],8,,{8}1/2,,
7,6,5/1,2,{16}8/3<6[8:1],{8},{16}1,{8}3,7,
6/5,4/5,{16}3,4,,5b/2h[16:5],{8},3h[384:1],1h[384:1],7h[384:1],
{4}6-4[8:1]/8-4[8:1],8b/6b,8-4[8:1]/2-5[8:1],8b/2b,
{8}1/7h[8:1],{24}2,3,4,{16}6,6,5,7,1-5[8:1],8,{8}3,{4}1/4w8[8:1],
4b,{8}2/6,{16}3,4,{8}1h[8:1],{16}7,8,{8}6h[8:1],4,
{4}5/3V16[4:1],3/6V82[4:1],5-1[8:1],{8}5,3,
{4}4/8<5[8:1],{8}8/3,3,4/2-6[8:1],{16}1,4,{8}2,7,
{4}7V52[4:1],7/2V48[4:1],{2}8w4[8:1],
{4}6b/2b,{8}4/3,2,6/5,{16}7,8,{8}6,1,
8/2,{16}3,5,{8}4h[8:1],{24}6,7,8,{16}2h[384:1],1h[384:1],{8}3-7[8:1],4,5,
{16}6<1[8:1],{8},{16}5,{8}6,3,{16}2>5[8:1],{8},{16}1,{8}2,8,
7h[8:1],{16}3,3,4,2,{8}8h[8:1],1-6[8:1],3/4,{4}1/7h[4:3],
{16}6h[384:1],{8},{16}2h[384:1],{8},8-5[8:1],{2}5-2[8:1]*-3[8:1],
E
