&title=Scarlet
&artist=榊原ゆい
&first=-0.65
&des=GAHOU
&lv_5=13
&inote_5=(175)
{8},,,,,,,1,
{8}1h[4:1],,5,3,3h[8:1],8,8h[8:1],5>2[8:1],
{8},8-5[8:1],,1h[4:1],,,1/4,,
{8}7h[4:1],,5,5h[8:1],8-5[8:1],8,4,4z8[4:1],
{16},,7,,6,,5,,1,4,1,4,1-5[8:1],,2,,
{8}7<4[8:1]/1b,,7/3>8[8:1],,6-2[8:1]/3,,6/3,3-1[8:1],
{8},5-7[8:1]/3,,5/3V52[16:3],,8,8,,
{8}2>5[8:1]/8,,2/6<1[8:1],,3-7[8:1]/6,,3/5,5-8[8:1],
{16},,5/4,,,,2,,6/4,,7/1,,6,5,,3,
{8}4<7[8:1],,4/1>4[8:1],,8-5[8:1]/1,,8/2,2-8[8:1],
{8},6-4[8:1]/2,,6/1V38[16:3],,5,5,,
{8}1-5[8:1]/6,,7,7>2[8:1],,3<6[8:1],,7,
{16}8,,1/2,,4-1[8:1],5,,5,4,,7,,,,2,8,
{8}7h[4:7]/3b,,5,,,,5,,
{8},,5,,,,5-3[8:1],,
{8}8-6[8:1],8,5-3[8:1],5,8V64[4:1],,4,3,
{8}2v5[8:1],,6,6-3[8:1],,2,,2/1,
{4}8b/3h[4:7],4,,4,
{4},4,,4-6[8:1],
{8}1-3[8:1],1,4-6[8:1],4,1V35[4:1],,5,6,
{8}7-4[8:1],,3,3<6[8:1],,1,8,7,
{8}6/8-2[8:1],,7-3[8:1],,4V28[16:3],,5,5h[4:1],
{8},2,6,4,5v2[8:1]/8h[4:1],,,,
{8}1-7[8:1],,3-1[8:1],,5V38[4:1],,7,7h[4:1],
{8},5,6,3,4v7[8:1]/1>3[8:1],,,,
{8}6/4-6[8:1],,3-7[8:1],,8V64[16:3],,1,1h[4:1],
{8},3,1,8,6-2[8:1]/1-5[8:1],,,,
{8}8h[4:1]/4-7[8:1],,,,1h[4:1]/5-2[8:1],,,8p3[4:1]*<3[4:1],
{8},,,,2,1,7/4-1[8:1],5/6,
{4}7h[4:5]/4b,8-6[8:1],,5-3[8:1],
{4},2-6[8:1],{16},,8,8,4-2[8:1],,5/3,,
{8}7-5[8:1],7,4-2[8:1],4,7V53[4:1],,3,2,
{8}1-6[8:1],,5,5-8[8:1],,1,,1/2,
{4}8b/4h[4:5],7-5[8:1],,3-8[8:1],
{4},7,{16}3,4,,6,5-7[8:1],,6/4,,
{8}2-4[8:1],2,5-7[8:1],5,2V46[4:1],,6,7,
{8}8-3[8:1],,4,4V28[16:3],,8,7,6,
{8}5-7[8:1]/8,,4-8[8:1],,3V16[4:1],,7,7h[4:1],
{8},4,5,2,1v6[8:1]/4h[4:1],,,,
{8}5/8-2[8:1],,7-3[8:1],,6V41[4:1],,2,2h[4:1],
{8},8,1,7,2v5[8:1]/6<1[8:1],,,,
{8}8/3-1[8:1],,4-8[8:1],,5V72[4:1],,4,4h[4:1],
{8},1,3,8,6v1[8:1]/2>5[8:1],,,,
{8}3h[4:1]/8-4[8:1],,,,6h[4:1]/1-5[8:1],,,7s3[4:1],
{8},,,,4,5,3,6,
{8}7-3[8:1]/1h[4:1],,,,2-6[8:1]/8h[4:1],,,7<4[8:1],
{16},,3,,2,,1/8,,7,5,,2,4,,5/6,,
{8}8b/1b,8bqq7[16:3]/1bpp2[16:3],,8b/1b,,,,8-4[8:1]/1,
{8},8,3-8[8:1],3,4-7[8:1],4,3,3V17[4:1]*V15[4:1],
{8},,,,6,3,4/2,1-5[8:1]/8,
{8},1,6-1[8:1],6,5-2[8:1],5,6,6<2[16:3]*qq4[16:3],
{8},,,,3,5-2[8:1]/4,6,5/7,
{8},5-2[8:1]/4,6,5/7,,8-4[8:1]/7,1,8/2,
{8},8-4[8:1]/7,1,8/2,,4/3,5/6,8/1>4[8:1],
{8},7/1,8-5[8:1],,4V26[4:1]/8V62[4:1],,8/4,,
{8},8/4,6/5,4/2,{16}7,5,,2,4,,7b-3[8:1]/1b,,
{8},7/2,1-5[8:1],1,6-2[8:1],6,4,4-8[8:1]*V26[4:1],
{8},,,,7,5/3,2,1/8-4[8:1],
{8},1/8,2-6[8:1],2,3-7[8:1],3,5,5s1[4:1]*s1[4:1],
{8},,,,6,5-7[8:1]/4q8[8:1],3,5/4,
{8},5-7[8:1]/4q8[8:1],3,5/4,,1q5[8:1]/2>4[8:1],3,1/2,
{8},1q5[8:1]/2>4[8:1],3,1/2,,6/5<2[4:1],7,6h[4:1]/5,
{8},,7-4[8:1]/4,,7/3,2>7[4:1],1,6h[4:1]/2,
{8},,8b/1b,,{16}4/2,,7/5,,3,4,,6,
{8}5-2[8:1],5,8-5[8:1],8,3-8[8:1],3,4-7[8:1],4,
{8}1-4[8:1],1,6-1[8:1],6,5>7[4:1],5,8,8,
{8},5-8[8:1]/6,4/3,,2-6[8:1],4V61[16:3]/3,,4b,
{8},,8b/4b,6b/2b,,,,,
