&title=Call My Name
&artist=Yukacco/Mameyudoufu
&first=0.02
&des=MeGaREX Final RounD
&lv_6=13+
&inote_6=(175){1},
{1},
{4}1>4[4:1],4<7[4:1],7>2[4:1],2>5[4:1],
{4}5qq8[2:1],8,7,6,
{4}5<8[4:1],8>3[4:1],3<6[4:1],6<1[4:1],
{4}1qq4[2:1],4,3,2,
{8}1,1,5,5,2,2,6,6,
{8}3,3,7,7,4,4,8,8,
{16}5,8,5,8,4,7,4,7,3,6,3,6,2,5,2,5,
{16}1,4,1,4,8,3,8,3,
{4}8>4[4:1],4<8[4:1]*q6[2:1],
{1},
{2}7h[4:1]/4h[4:1],6h[4:1]/5h[4:1],
{8}6,7/4,,3,2/5-7[8:1],,2-4[8:1],,
{8}8,8,7,4,6-4[8:1],,3h[4:1],,
{8},,3/5,,3h[4:1]/5h[4:1],,,6,
{8}7/4-2[8:1],,7-5[8:1],,1h[4:1],,,,
{8}1,2-4[8:1]/5,,2/6,7-5[8:1],,7/3,2,
{8}1<5[4:1],,5>1[4:1],,1V75[4:1],,5V31[4:1],,
{8},,7-5[8:1],,7/1h[4:1],,,5,
{8}2/6,,2-4[8:1],,2/8h[4:1],,,4,
{8}7<4[4:1]/3,,3,2,1<6[4:1],,4,3,
{8}2>5[4:1],,5<8[4:1],,8>3[4:1],,,6,
{8}6h[4:1],,,5/3,5h[4:1]/3h[4:1],,,5,
{8}5>2[4:1],,2<7[4:1],,7<4[4:1],,4pp7[8:8],,
{1}8xpp3[8:6],
{8},,,,8/4,,8/4,,
{8}7h[4:1]/3h[4:1],,,6h[4:1]/2h[4:1],,,5>7[4:3]/1h[1:1],,
{1},
{8}6h[4:1],,,2h[4:1]/5h[4:1],,,3h[4:1]/6h[4:1],,
{8},4<2[8:3]/7h[8:5],,,,,,,
{8}3h[4:1],,,8h[4:1]/4h[4:1],,,7h[4:1]/3h[4:1],,
{8},6h[4:1]/2h[4:1],,,1<3[4:5]/5h[1:2],,,,
{1},
{2},C,
{8}2<4[4:6],,3,,3,,2,,
{8}2,,1,,1,,8,,
{8}7>5[4:6],,6,,6,,7,,
{8}7,,8,,8,,1,,
{8}5,5,1,1,4,4,8,8,
{8}3,3,7,7,2,2,6,6,
{16}1,4,1,4,2,5,2,5,3,6,3,6,4,7,4,7,
{4}5bw1[4:1],,,7/3,
{8}6h[16:3]/4h[16:3],,3h[16:3]/5h[16:3],,2/6,2h[8:1]/6h[8:1],,7h[16:3]/3h[16:3],
{8},8h[16:3]/4h[16:3],,1s5[16:3]/5,1/5,,,,
{8}7h[16:3]/3h[16:3],,2h[16:3]/8h[16:3],,1/7,1h[8:1]/7h[8:1],,6h[16:3]/2h[16:3],
{8},5h[8:1],,4V61[16:3]/2v3[16:3],,,,,
{8}8<5[16:3],,,,4,3h[16:3]/5h[16:3],,2h[16:3]/6h[16:3],
{8},7h[8:1]/3h[8:1],,8z4[16:3]/4,8/4,,,,
{16}2h[4:1]/6h[4:1],,,,,,1/7,,1h[8:1]/7h[8:1],,,,3/4,,,4/5,
{16},,5/6,,5qq2[8:3]/6q1[8:3],,,,5b/6b,,,,,,,,
{16}8xV64[4:1]/3xh[8:1],,,,2h[8:1],,,,1h[8:1],,,1h[8:1],,,1,,
{16}1V35[4:1]/6h[8:1],,,,7h[8:1],,,,8h[8:1],,,8h[8:1],,,8,,
{16}8V64[4:1]/3h[8:1],,,,2h[8:1],,,,1h[8:1],,,1h[8:1],,,1,,
{16}1V35[4:1]/6h[8:1],,,,7h[8:1],,,,8h[8:1],,,8h[8:1],,,8,,
{16}8V64[4:1]/4-2[8:1],,,,4,,,,1h[8:1],,,1h[8:1],,,1,,
{16}1V35[4:1]/5-7[8:1],,,,5,,,,8h[8:1],,,8h[8:1],,,8,,
{1}8bqq1[2:1]/4bqq5[2:1],
{1}1qq5[2:1]/5qq1[2:1],
{8}1>5[2:1]/5pp8[1:1],,,,,,,,
{1}8qq3[1:1],
{1}3qq6[4:5]*qq8[4:5],
{1},
{1}1>4[4:1]*qq6[8:9],
{8},6pp4[8:9],,,,,,,
{8},,4qq1[1:1]*qq7[1:1],,,,,,
{1},
{16}6h[4:1]/2,,,,3,4,2h[4:1],,,,8,1,7,,6/2-4[8:1],,
{8},5,6,7-5[8:1],,4,3,2,
{16}1h[4:1],,,,7,8,6h[4:1],,,,4,5,3,,2h[4:1]/6,,
{16},,5,4,6,,7/3,,,,2,,1/7,,6/2,,
{16}3h[4:1]/5,,,,6,5,7h[4:1],,,,4,5,3,,2/6-8[8:1],,
{8},6/1,2,3-1[8:1],,3/8,7,6,
{16}5h[4:1]/1,,,,3,4,2h[4:1],,,,8,1,7,,6h[4:1]/2,,
{16},,3,4,2,,5V71[4:1]/1,,,,2,,3,,4,,
{8}2x<4[4:6],,3h[8:1],,3h[8:1],,3h[8:1],,
{8}2h[8:1],,2h[8:1],,2h[8:1],,2h[8:1],,
{8}5>7[4:6],,6h[8:1],,6h[8:1],,6h[8:1],,
{8}5h[8:1],,5h[8:1],,5h[8:1],,5h[8:1],,
{8}8,8,4,4,1,1,5,5,
{8}2,2,6,6,3,3,7,7,
{16}4,7,4,7,3,6,3,6,2,5,2,5,1,4,1,4,
{4}8bw4[4:1],,,2b/6b,
{16}1/7h[4:1],,,,4,5,3h[4:1],,,,1,2,8,3,7h[4:1],,
{8}5,4,7<4[8:1]/3,8,2q6[8:1]/7,1,2/7,8,
{16}8h[4:1]/4,,,,3,4,2h[4:1],,,,5,4,6,5,7h[4:1],,
{16},,8,7,1,6,2V48[4:1],,,,7,,6,,5,,
{16}1h[4:1]/5,,,,6,5,7h[4:1],,,,4,5,3,4,2h[4:1],,
{8}4,5,2>5[8:1]/6,1,7p3[8:1]/2,8,7/2,1,
{8}2/7,6,2/5,3,4/8,3-8[8:1]/7-4[8:1],,7/3,
{8},1,3/5,8,6/4,3,1/7,6,
{16}2/8,,3,,5,4,6h[4:1],,2,,8,7,4,5,2h[4:1],,
{8}6,7,8/2-5[8:1],4,7-3[8:1]/2,8,1-6[8:1]*-5[8:1],2,
{16}1,,,,7,4,8h[4:1],,,,5,7,4,6,3h[4:1],,
{16},,1,2,5,4,7V51[4:1],,,,7/1,,2,,3,,
{16}4/8,,2,,6,5,7h[4:1],,3,,1,8,3,4,2h[4:1],,
{8}4,5,6/3-5[8:1],2,7-4[8:1]/3,8,2-6[8:1]/7,1,
{8}7/2,8,7-5[8:1],5V72[4:1],7,2V48[4:1],,8x>8[8:5]*<8[8:5],
{1},
{4}1>4[4:1],4<7[4:1],7>2[4:1],2>5[4:1],
{4}5qq1[2:1],8h[8:1],7h[8:1],6h[8:1],
{4}5<8[4:1],8>3[4:1],3<6[4:1],6<1[4:1],
{4}1qq5[2:1],4h[8:1],3h[8:1],2h[8:1],
{4}1>5[4:1],5<1[4:1],1>5[4:1],5<1[4:1],
{4}1pp5[2:1],5h[8:1],6h[8:1],7h[8:1],
{4}8<4[4:1],4>8[4:1],8<4[4:1],4>8[4:1],
{4}8qq4[2:1],4h[8:1],3h[8:1],2h[8:1],
{1}1b>8[1:2]*s5[8:9],
{1},
{1},
E
