&title=カウントダウンラブ (Game Size)
&artist=I'm a Cutie Finder
&first=0.76
&des=同求此女冷知识
&lv_5=13+
&inote_5=(143)
||Intro
{4}
3b-6-8-5-3[4:3]/A8/B8f/E8/E1,,,,6-3-7-4[2:1],,{16},,2bx,,,1bx,,,
{4}B8f/E8/E1/5b-7-4-2-5[4:3],,,,E1`D1,8x^6pp4[2:1]/1x^3qq5[2:1],,,
D5f,3V52[4:1]/8V61[4:1],3/8,,{4}2x-7[8:1],3x-6[8:1],,{4}Cf,
{8}4x-2[8:1],5x-7[8:1],4-8[8:1],5-1[8:1],4,5,{32}4x-8[8:1],3,2,1,8,7,6,5,{4}4bxpp7[2:1]*qq1[2:1],,,,
||Interlude
{4}
2v5[8:1]/8v5[8:1],2b/8b,{16}6,4,,7,,3,4,2,
{16}7x,8,7,8,6,5,,4-1[8:1],{8},A8/B8/E8/E1,A8/B8/E8/E1,,
{4}7v4[8:1]/1v4[8:1],1/7,{16}3,5,,2,,,1,,{8}2/8h[8:3],E7,C1,E3,{16}1x/8x,,B7/B2/E7/E3`C1f`B3/B6/B4/B5/E5,,{4},
||A
melo
{16}64,,5,,24,,3,,6-4[8:1],,,4-7[8:1],,,3,,
{16}1-4[8:1],,1,,8-5[8:1],,8,,4v2^7[4:1],,,,6,,,,
{16}6,,5,,24,,3,,6qq4[8:1],,,4^7[8:1],,,2,,
{16}1^4[8:1],,1,,8^5[8:1],,8,,4-8[8:1]*-1[8:1],,,,,,,,
{16}52,,3,,74,,6,,3pp4[8:1],,,4^1[8:1],,,8,,
{16}7-2[8:1],,7,,3,,3,,3pp4-1^2[16:5],,,,,,,,
{16}5-8[8:1],,5,,1-4[8:1],,1,,7-2[8:1],,7,,3,,3,,
{32}4,5,6,7,8,1,2,3,4,5,6,7,8,1,2,3,4/8z4[4:1],,,,,,,,,,,,,,,,
||B
melo
{16}
2b^5[8:1],,,6,,,7,,8-4[8:1],8,,4,,,3,,
2q6[8:1],,,6,,,7,,8-4[8:1],8,,4,,,3,,
2V46[32:5],,,6,,,7,,1-5[8:1],1,,4,,,3,,
2-6[8:1],,,6,,,7,,8b/2b,,,3b/4b,,,6b/5b,,
7b^4[8:1]/8b,,,3,,,2,,1-5[8:1],1,,5,,,6,,
7p3[8:1],,,3,,,2,,1-5[8:1],1,,5,,,6,,
7V53[32:5],,,3,,,2,,8h[16:3],,,6h[16:3],,,5,,
{48}5xpp8[16:9]/4xqq1[16:9],D6/D4f,A6f/A3,D7/D3,A7/A2,D8/D2,A8/A1,,,,,,{4},,,
(这部分待定,另一个版本在easy的对应部分里)||bridge
{4}
7pp2[2:1],,,,3pp6[2:1],,,,5qq3[4:1]/6pp8[4:1],,,{8}1/2,7x/4x,
{8},2/5,3/4q7b[4:1],,C1,,1hx[1:0],,
||pre
sabi
{16}2/8,,,4/5,,,2^5[8:1]/6,,,,,,8-4[8:1],,,,
{8}8,3,2/5,{16}6,5,{8}7^4[8:1],8,{4}1-5[8:1]/7,
{16}1b,,,6,,,7^4[8:1]/3,,,,,,2^5[8:1],,,,
{8}2,{16}8,{8}8,{16}4,{8}4,{16}7,5,6,6,3p7[8:1],4,{8}2bh[8:3],
{4},{8},{16}7,1,6,2,5,3,6,4,7,5,
8b,3,4,1b,6,5,8,8,2b,7,3,6b,4,5pp5[16:7],5xqq5[8:3],,
{2},{4},B1f,
||sabi-1
{16}
8b/2b,,4,,17,17,,2/6,,3,5,4,B6f,,,,
1b/7b,,5,,82,82,,7/3,,6,4,5,B2f,,,,
8b/2b,,4,,17,17,,2/6,,3,5,4,8,,1pp5[24:8]/7,,
,,6-8[12:1],,5,,6,,,,47,,6,5,6,,
{16}3b/4b,,2,,3qq5[32:9],3,,5,,,6,,7,,8,,
1<6[16:3],,,6-4-8[32:8],,,4,,,,1,,1,,,,
24,,3,,56,,7-5[12:1],4,,4,7,,3,,24,,
1b/5b,,,3bqq2>3[16:3]/7bqq6<7[16:3],,,3b/7b,,,,,,8x-4b[8:1],,,,
||sabi-2
{16}
1b/8b,,,,35,35,,2/6,,3,5,4,Cf,,,,
1b/7b,,5,,82,82,,7/3,,6,4,5,B2f,,,,
8b/2b,,4,,17,17,,2/6,,3,5,4,7,,6pp1[24:9]/1,,
,,2>5[8:1],,1,,2b,,,,4b/8w4[8:1],,,,8b`Cf,,
{16},,25,,6pp4[32:9],6,,4,,,3,,2,,1,,
52,,3,4,,6,5,,4>1[8:1]/7<4[8:1],,,,47,,,,
25,,3,,4-1[190#32:4]/6,46,,8h[16:5],,,2x,,3,,4,,
7b/5b,,,2b/4b,,,3bqq5b[8:2]/6bpp4b[8:2],,,,,,Cf,,,,
||post
sabi
{16}
2h[16:6]/4,,,,1,,8,,
7h[16:6]/5,,,8,,,1,,
2h[16:6]/4,,7,,4,,7,,4/3h[4:1],,
,,2,,1,,8-4[8:1],,,,
2,,1,,8-4[8:1],,,7,,,6,,
34,,1,,34,,8,,45,,8,,56,,,,
2h[16:6]/4,,,,1,,8,,
7h[16:6]/5,,,8,,,1,,
2h[16:6]/4,,7,,4,,7,,4/3h[4:1],,
,,2,,1,,8^5[8:1],,,,
2,,1,,8-4[8:1],,,7,,,6,,
5-1[8:1],,,,,,,,
,,34,,{32}8bx,1x/7x,2x/6x,3x/5x,
,,,,
||synth
solo
{16}
3-8[12:1]/7-4[12:1],,,,3b/7b,,,2,3,,8h[4:1],,,,4qq5[8:3],,,,6,,5<1[16:3],,7,,,,4bx,,4bx,,,,
1,,18,,2,5,3,8,,8,,8,5-2[12:1],,8,,
5b<8[8:1],,6,,5b>2[8:1],,4,,5bw1[8:1],,6,,5b,,,,
7xh[8:1],,,2xh[8:1]/5xh[8:1],,,3x/8xh[16:3],,,
4,5,3,4,,2,8,1h[8:1],,5,5h[4:1],,B7/E8,,E2/B2,,6,1bx,5h[16:3],1bx,,3,,
8,,3,35,,7,1,8,2,,6,46,,8,1,,
4,5,3,6,2,7,1,8,
{32}
3,4,5,6,7,8,1,2,3,4,5,6,7,8,1,2,
||C
melo
{4}
3qq5[4:2],,,,6pp4[4:2],,,,
3qq6[4:2],,,
{8},4w8[4:1],{4},,,,
1-4[4:1]*-6[4:1],,,,5<4[4:2],,,,
1^4[4:1]/8^5[4:1],,,,
3^2pp3[4:2]/6^7qq6[4:2],,,,
2^1pp2[4:2]/7^8qq7[4:2],,,
,,,4bxqq4[4:1]*pp4[4:1],,
(143.00001)
,,
(143)
||sabi-1
{16}
2b/8b,,28,,4,4h[8:1],,1-5[12:1],,2,8,1,7,,6,,
35,,35,,8,8h[8:1],,5-1[12:1],,6,4,5,3,,2,,
1b,,2b,,6,5/6h[8:1],,8-4[12:1],,7,3,8,1,,2,,
8,,17,,26,,3/5>2[8:1],,,,8,,7,,6,,
5x<6v3<6v3<6v3<6v3<6v3[2:3],,,,1xh[16:1],,,2x,,,1xh[16:1],,8x,,1x,,
2x,,1xh[16:1],,,8xh[16:1],,,1xh[8:1],,,,2xh[8:1],,,,
1,,1h[8:1],,6,46,,5<8v2[4:1],,,2,,3,,4,,
5b,,,1b-5[192#8:1],,,1b/5bpp5[8:1]*qq5[8:1],,,,,,A5f,,,,
||sabi-2
{16}
2-5[8:1],,,,26,,7,,8-4[8:1],,,1,8,,2,,
3xp6[4:1],,4,,6xq3[4:1],,7,,8x,,,,7,,6,,
5-8[8:1],,,,45,,3,,2-6[8:1],,,8,2>5[8:1],,7,,
2b<7[8:1],,,,2b/6-1[8:1],,,,6b/4w8[8:1],,,,4b,,,,
7x-4[8:1],,,,37,,2,,1-5[8:1],,,8,1,,7,,
6xq3[4:1],,5,,3xp6[4:1],,2,,1x,,,,2,,3,,
4-8[8:1],,,,45,,6,,7-3[8:1],,,1,7,,2,,
1h[8:1],,7,2h,8h,3h,6,4,3xv8[8:1]/7xv4[8:1],,,,37,,,,
||post
sabi
{16}
6bxh[4:1]/A2f/B2/E2/E3/D2/D3,,,,,,,,
4bxh[4:1]/A8f/E1/E8/B8/D1/D8,,,,,,,,
7bxh[8:1],,1,8,2,7,3,6,
4x-1[8:1]/5x-8[8:1],,3b/6b,,4b/5b,,,,
||outro
{16}
2xv5[8:1]/8xv5[8:1],,,,28,,,,4h[8:1]/6h[8:1],,,46,,7,3,8,
2,1,2,8,2,1,,5x-8[8:1],,,1b,,1b,,,,
4>1[8:1],,4,,8<5[8:1],,8,,2h[8:1],,,2,,6,3,5,
2,4,3,6,{24}4,5,4,{16}7,5,6,,1h[8:1]/5h[8:1],,,3h[8:1]/7h[8:1],,,
1x<8<7<6>5>4>3>2<1b[4:1],,,,,,,,,,,,
{4}
3bqq5[8:11]/6bpp4[8:11],,,,,,,
Ch[24:1]/A1/E1/A8/D2/D8/A7/A2/E7/E3/B6/B5/E5/B4/B3,,
E
