&title=Innocent Desire
&artist=Duca
&first=0.1
&des=--たすけて--
&lv_5=13+
&inote_5=(202)
{4},,,2/7,
{1}8/1-6-2-5-3b[4:3],
6<2v4[2:1],
2q5b[2:1],
7p4[2:1],
{8}1,1,4,2h[8:3],,5,5,3,
6,6,4,7h[8:3],,5,5,8p7<4[8:19],
{1}4p3>8b[4:9],
,{4},,,{16},6,
,1h[2:1],
,,,8,,,,7h[8:3],,,,2,,2,,,,3/5,
,,,4/7,,5-1[8:1],,8,,5,,,,6h[2:1],
,,,3,,,,4h[8:3],,,,7,,8h[8:3],,,,3,
,2,,1,,8,,7,,6,,5,,4h[4:3],
,,,2,,,,8,,,,7,,5/6,,,,8/3,
,,,2/7,,1-5[8:1],,6,,1,,,,8qq1[2:1],
,,,4,,4,,,,3,,,,2h[4:1],,,,8,
,2,,6,,3>8[8:1],,5,,3,,,,4-7[8:1],
,1,,4,,3h[4:1],,,,8,,8,,4,,1<6[8:1],
,5-2[8:1],,1,,5,,,,6,,6,,3,,4/5,
,,,3,,8h[4:1],,,,2,,,,1/6,,,,8/3qq5[8:5],
,,,,,8,,,,7,,,,6h[16:11],
,,,5,,5,,,,,{8}4,,3h[8:3],
4,5,{4}6pp5[8:3],{8},2,,3,
,5x/4x,{4}5x/6x,7/8,1/8,
{8}3,6,2,7,4,5h[4:9],,E8/B7/E7,
,,,,,,,B2/E3/B3,
,,,,,,,B1/E1/E2,
,,,,,,,2p5[16:9]/7q4[16:9],
,,,C,,E5,,
(203)
3x/6x,
,8,{4}2h[4:1],{8}7,1h[4:1],,6,
{4}8>3[8:1],{8}8/6,5-1[8:1],,4/5,,4h[4:1],
,8v7-5[8:3],8,3,,2,2,4,
3,8,1,6h[4:1],,E5,,2/7,
,3,3,8h[4:1],,1,{4}7-5[8:1],
{8}7/4,3>1[8:1],,3/4,,5,5,2h[8:3],
,1,{4}1h[4:1],{8}8V24[8:5],8V64[2:1],,,,,,,3,
6,2,8h[8:3],
,,{4}1h[8:3],{8},4<1[8:3],,B7/B6,
,3pp8[2:1],{4}3,{8},8x>3q5[4:3],7x,6xh[4:3],
,,,,,,,5x,
{4}6x,{8}4x,4x/5x,,3/6,,2/7h[8:3],
,,{4}8h[8:3],{8},1h[2:1],,2,
,3v8[8:1],{4}3v6[8:1],{8},1x,1x,7x,
2x,8x,1,7,2,3q4[2:1]/6p5[2:1],,,,,,,,6/3,
,1/7p4[2:1],
,1,,1,,1,,1/5pp8[2:1],
,1,,1,,1,,8/2pp6[2:1],
,8,,8,,8,,8/5qq2[2:1],
,8,,8,,8,,1,
1,7,7,3,3,5,5,8h[8:1],
7h[8:1],4h[8:1],5h[8:1],2h[8:1],1h[8:1],4h[8:1],5h[8:1],{16}3x,4x,
5x,6x,7x,8x,1x,2x,3x/6x,5x,4x,3x,2x,1x,8x,7x,3x,4x,
6x,5x,2x,3x,7x,6x,{32}1,2,3,4,5,6,7,8,1,2,3,4,5,6,7,8,{8}1bp4>2b[4:3]`5bxp8<6[4:3],
,,,,,,,,,,{4}2bxh[4:1]/6bxh[4:1],
{8},8b/4b,,2-4b[8:1],
8,2,6V84[4:1],5,6,3,2,1-4b[8:1],
7-4[8:1],1,7,3-8[8:1],,3b/2b,,2,
7,1h[8:3],{4}8-6[8:1],8V24[16:3],5/8,
{8}6,7b-3[8:1],,7b/5b-1[8:1],,5b,,8,
1,6,6,8,1,2,2,7,
1,8-3[8:1],3-6[8:1],8b,,,3>7>3v5b[4:3],6,
,6,,6,,6,,6,
4,7,2,{16}8,1,{8}8,2/7,,1/C,
,1/E4,,1/E5,,E6/1-5[8:1],,1b/8bx-4b[8:1],
,8b/3bx-8[8:1],,3b/7bx-4b[8:1],,7b/1bx,,1x-3[8:1],
4,1,5,1x-5[8:1],6,1x,7,8x-6[8:1],
5,8x,4,8x-4[8:1],3,8x,2,1x-5[8:1],
1x,8,7,6x-2[8:1],6x,5,4,3x-7[8:1],
5x,3x,6x-1[8:1],4x-8[8:1],6x,4x,{16}7,6,5,1,
2,3,5<2[16:5],6<3[16:5],7>4[16:5],8>5[16:5],{8}5b/1bx,{16},,5,6,7,8,1,2,
3,4,{8}5x,6x/3x,2x/7x,8x/1x,2/7,3/6,4/5pp5[1:1],
,,,,,,,5pp4>6[4:7],
,,,,,,,1h[1:1],
{4},,,{16},,{32},B1,{16}C,
E
