&title=Equilibrium
&artist=Maozon
&first=0.075
&lv_5=13+
&des=The Musical Ghost
&inote_5=(180){4},,,
{16}8,1,7,2,8b-4b[12.8#90:1],,,,,,,,,,,,,,,,
{1},,{8},,,,8,,,,
{16}6x,,6,,5,,5,7,,7,5,,5,8,,,
3x,,3,,4,,4,2,,2,4,,4,1,,,
8x,,8,,1,,1,7,,7,2,,2,6,,6,3,,3,5,,5,4,,4x,5,3,6,2,7,1,8,
{4}1xb>8[4:13],,
{8},B7,B6,B5,{4},,B6h[16:6],,{16}C,,,,,,,,,,,,,,{8}2h[16:10],,,,,,,,,
{4}8<1[4:13],,,{8}E2,B2,,,,,E4,B4,,E6,B6,,,,,E8,B8,{16}Chf[8:5],,
{4},,,,{16}5h[4:1],,,,4,,4,6,,6,4,,4/6,,,,
3,,3,,4,,4,2,,2,4,,2/4,,,,
6h[4:1],,,,5,,5,7,,7,5,,5/7,,,,
4,,4,,5,,5,3,,3,5,,3/5,,3x/5x,,
2h[4:1],,,,4,,4,1,,1,4,,4/1,,,,
7,,7,,5,,5,8,,8,5,,5/8,,5x/8x,,2b>8[4:3]/7b<1[4:3],,,,
{4},,,,,{16}C,,8x,1,7,2,6,3,5xbs1[8:1]/4xb,,,,,,,,
{8}1/2,8s4[8:2]/3z7[8:2],7/4
,8/3,,,,1s5[72#16:1],7h[8:1],5h[8:1],4h[8:1],2h[8:1],1b,,,,
{16}2h[8:1]/4h[8:1],,,2h[8:1]/4h[8:1],,,2/4,,
5h[8:1]/7h[8:1],,,5h[8:1]/7h[8:1],,,5/7,,
1h[8:1]/3h[8:1],,,1h[8:1]/3h[8:1],,,1/3,,
4xbz8[8:1]/5xb,,,,,,,,7/8,,6s2[8:2]/1z5[8:2],,5/2,,6/1,,
{8},,,,C,{16}6x,6,5x,5,4x,4,3bs7[8:1],,,,,,,,
{16}8h[8:1]/6h[8:1],,,8h[8:1]/6h[8:1],,,8h[64:1]/6h[64:1],,
1h[8:1]/3h[8:1],,,1h[8:1]/3h[8:1],,,1h[64:1]/3h[64:1],,
5h[8:1]/7h[8:1],,,5h[8:1]/7h[8:1],,,5h[64:1]/7h[64:1],,
4xbz8[8:1]/5xb,,,,,,,,5/6,,7z3[8:2]/4s8[8:2],,8/3,,7/4,,,,,,,,
{8}8z4[72#16:1],2h[8:1],4h[8:1],5h[8:1],7h[8:1],8b,,,,
{16}8h[8:1]/3h[8:1],,,8h[8:1]/3h[8:1],,,8/3,,
6h[8:1]/1h[8:1],,,6h[8:1]/1h[8:1],,,6/1,,
2h[8:1]/7h[8:1],,,2h[8:1]/7h[8:1],,,2/7,,
3x-8[8:1]/7x-4[8:1],,,,3/7,,,,4/5,,2x-5[8:1]/6x-1[8:1],,,,2/6,,,,,,
2/1,,3/8,,4/7,,6,5,7,4,8,3,{32}1b<2b[4:5],B1,C,B5,{8},,,,,,,,,,,
7h[8:1],5h[8:1],3h[8:1],1h[8:1],
{4}8b,,,,B8/B1/Ch[4:10],,B7/B2,,B6/B3,,,,B5/B4,,,,
{16}3h[8:1],,,3h[8:1],,,3,,,,3,,3,4,2,5,
1h[8:1],,,1h[8:1],,,1,,8h[8:1],,,8h[8:1],,,8,,
6h[8:1],,,6h[8:1],,,6,,,,6,,6,5,7,4,
8x/3x,,,4/5,,,1/6,,2x/7x,,,4/5,,,2/8,,
4/6-1[8:1],,,4,6,,4,,5/6-1[8:1],,,5,6,,5,,4/6-1[8:1],,,4,6,,4,,5/6-1[8:1],,,5,6,,5,,
5/3-8[8:1],,,5,3,,5,,4/3-8[8:1],,,4,3,,4,,5/3-8[8:1],,,5,3,,5,,4/3-8[8:1],,,4,3,,4,,
{16}4/5,,,,3,,3,2,,2,1,,1,8,,,
4/5,,4/5,,6,,6,7,,7,8,,8,1,,,
7h[8:1]/2h[8:1],,,,C,,6,5,6,3,4,3,8,1,7,2,8bh[8:7],,,,,,,,E3,,,C,,,E7,,
{4}8xb<1[4:13],,
{8},B2,B3,B4,{4},,B3h[16:6],,{16}C,,,,,,,,,,,,,,{8}7h[16:10],,,,,,,,,
{4}1>8[4:13],,,{8}E8,B7,,,,,E6,B5,,E4,B3,,,,,E2,B1,{16}Chf[8:5],,,,,,,,,,,,,,,,,,
{8}8hx[8:3]/1hx[8:3],,,,2,6,4,3hx[8:3]/5hx[8:3],,,,,4hx[8:3]/6hx[8:3],,,,
7hx[8:3]/5hx[8:3],,,,6,1,7,8hx[8:3]/6hx[8:3],,,,,{32}1hx[8:3]/E5,E4,E3,E2,E1,E8,E7,E6,E5,E4,E3,E2,E1f,,,,
{8}8xh[8:3]/3hx[8:3],,,,2,7,8,6hx[8:3]/1hx[8:3],,,,
6x/5x,{24}7hx[8:3]/B1,B2,B3,B4,B5,B6,B7,B8,B1,,,,
{8}5xh[8:3]/2xh[8:3],,,,6,3,5,4b^2v7^5[8:5]/5b,,,,,,,,,
7x,8,6,1h[4:1],,5,4,6,5,7h[4:1],,
3h[4:1],,5,4,5,2x,1,3,8h[4:1],,4,5,3,4,2h[4:1],,6h[4:1],,4,5,4,
{8}7/8,7/8,1/6,1/6,2/5,2/5,3/4,3/4,1/2,1/2,8/3,8/3,4/7,4/7,5/6,5/6,
{16}7,8,6,1,5,2,4,3,1,2,8,3,7-3b[8:1],4,6,5,
{1}7bw3b[2:1],{8}8h[4:5],,,,,,,,1h[4:1],,,,{32}1bw5b[10:1],2,3,4,5,6,7,8,
{8}1b,,
1b-5[10:1],6-8[10:1],1,6,,2-6[10:1],1-5[10:1],2>5b[10:1],1,2,,
4/6,1/7,5/3,1/8,4/5,
8b-4[10:1],3-1[10:1],8,3,,7-3[10:1],8-4[10:1],7<4b[10:1],8,7,,
5/3,8/2,4/6,8/1,5/4,
2b-5[10:1],7-4[10:1],2,7,,
1/7,4/6,8/2,
{16}4xb/5xb,,,2xb/7xb,,,3xb/6xb,,,,6/2,,5x/1x,6/2,7/3,8/4,
{4}1xbh[8:1]/5x-2[8:1],1h[8:1],1h[8:1]/2-7[8:1],1h[8:1],
1h[8:1]/7-5[8:1],1h[8:1],1-6[10:1]/5-2b[10:1],1b/5b,
8xbh[8:1]/4-7[8:1],8h[8:1],8h[8:1]/7-2[8:1],8h[8:1],
8h[8:1]/2-4[8:1],8h[8:1],8-3[10:1]/4-7b[10:1],8b/4b,
{8}8bx/3bx,7,6/1,2,8/3,7,6/1,2,
3b/7b,6,5/2,3,4/7,6,5/2,3,
{16}4b,5,3,6,2,7,1,8,1b,8,2,7,3,6,4w8b[360#3:1],5,4b,,,,,,
{8}7b/3,1b/5,8b/2,4b/6,8b/1,
4b/5<4[4:15],,,E3/B3,,,E7/B6,,{64},,,,,,,E1,
{8}D1,,,C,,,,
E7/B6,,,E3/B3,,,E7/B6,,{64},,,,,,,E1,{8}D1f,
E
