&title=忘れじの最果て
&artist=Metomate/nayuta
&first=-0.03
&des=o _o Respect for Sushimekabu
&lv_5=13+
&inote_5=(183)
{1},
{8},,,,,,,,,3h[8:1],,,7h[8:1],5h[8:1],6h[8:1],,,,
{16}E3,B3,B4,,E7,B6,B5,,3h[8:1],,4,,6h[8:1],,5,,
7h[8:2],,,,5h[8:2],,,,4w8[8:6],,,,,,,,,,,,,,,,,,,,
{8},3h[8:2]/4h[8:2],,,5h[8:2]/7h[8:2],,,,3h[8:2]/5h[8:2],,,,
7h[8:2]/5,,4,3,5,2pp7[8:7],,,6,,7,,8h[8:2],,,,5h[8:2],,6,8-4[8:1],
,3,3h[8:2],,E3,,
4,3,2h[8:2],,5,3,4h[8:2],,5,3,2v3-5[8:3],,8h,,,,
7,5,6h[8:2],,4,6,5h[8:2],,6-3[8:1],,,
2,2,4h,3v2-8[8:2],,5h[8:2],,,,
1,5,2h/6pp6[8:2],,,4,,2,2-4[8:1],5,6h[8:2],,5qq4[16:4],,8h[8:3],,,5h[8:2],,
6h[8:2],,1h[8:1],,2h[8:2]/4h[8:2],,,1h[8:4]/3,,,E3,E4,,3-5[8:1],,6h[8:2],,4,,
57,5h[8:2]/7h[8:2],,,6/8h[8:4],,E7,E6,4xV25-1-5-2-4[8:7],,,,,,,,,
7,7,5,6-4[8:1],,3h[8:2],,5h[8:2],,4,4p8[8:1],,5pp5[8:2],,5qq4[8:2],,1h[8:2],,,,
5h[8:2],,4,3/6h[8:2],,5,7-4[8:1]/4,,3-5[8:1],,8-4[8:1],,2b<3b[8:28],,,,,,E5,,
,,,,E3,,,,
{32}E1,D1,,,
{8},,,,,
{32}E7,D7,,,
{8},,,,,
{32}E5,D5,,,,,,,,,,,
{8},6h[8:2],,4,5h[8:2],,3,6h[8:2],,4,
7h[8:2],,5,6h[8:2],,5,6,
3,4,5,4,5,6,3,4,5,2,3,4,3,4,5h[8:2],,6>3[8:1],,,8z4[8:2],,,3-7[8:1],,,,
6h[8:2],,5h[8:2],,4h[8:2],,3<6[8:1],,,8-4[8:1],,,3s7[8:2],,,,
6h[8:2],,5h[8:2],,4h[8:2],,3qq4[8:3],,4,,5,,7,5h[8:2],,4h[8:2],,
{16}3,,4,,2>5[8:1],,1,,6,,8h[8:2],,,,5,,7,,4,,6,,2/5,,3,,7bqq8[8:3]/4bqq3[8:3],,,,,,,,,,,,
1w5[8:1],,,,1b,,,,37,,
2>5[8:1]/5<8[8:1],,,,2/5V38[8:2],,,,7,,
{8}6h[8:2],,1-5[8:1],,7-3[8:1],,
4-1[8:1],,7,,2b/6b,
{16}4>1[8:1]/8<5[8:1],,,,4/8pp8[16:3],,,,5,,
{8}6h[8:2],,1x>4[8:1],,1<6[8:1],,
5qq4[16:3]/1,,7,,8,8<2[8:3]/4,,,2,1,8-4[8:1],,8<5[8:1],,8>3[8:1],,4-8[8:1]/8,,
1>4[8:1]*<6[8:1]/4,,1qq1[8:2],,5b<3[8:2],,,,4h[8:2],,6,3/7<4[8:1],,2,3>4[8:3],,3b/7h[8:2],,
{16},,,,3,,,,15,,
3>8[8:1]/7<4[8:1],,,,7b/3V51[8:2],,,,,,
{8}7h[8:2],,
{16}8>4[8:2],,,,4<7[16:3],,,
6,,,8qq1[16:5],,,,,,2,,
{8}3,4h[8:2],,2,2<7[8:1],,4,4q5b[8:2],,7,,8,8<3[8:3],,3,3q1[8:2],,
1p3[8:2],,3<8[8:2],,2q6[8:1],,2,,4h[8:2],,1-5[8:1]*-6[8:1],,1>4[8:1],,1,
,6b,3b-8[8:1]/7b-4[8:1],2b,3/7,,48,2/6<3[8:2],,4h[8:2],,,1-5[8:1],,5,6,7-3[8:1],,
4,2,1>4[8:1],,4,6,8<5[8:1],,5,3,1>4[8:1],,4qq5[8:3],6,8p4b[8:1],1b,,,,
{16}3h[8:1]/5h[8:1],,,2h[8:1]/6h[8:1],,,17,,
{8}8>7[8:3],2,4,4h[8:2],,,,7V58-4[8:5],,,2,,4,,3,,1h[8:6]/4,,,,,,7,
7-1>2-4[8:25],,,,,1-7<6-4[8:20],,,,,
{32}A2f,B2,C,B6,A6,,,,
{16},,,,,,,,,,,,,,,,,,,,,,,,,,,,,,,,,,,,,,,,
