&title=Gotcha Gotcha (cut.ver)
&artist=㚁Records
&first=-0.01
&des=obs
&des_5=obs
&lv_5=13+
&inote_5=(177){4},,,,{1}2v5[2:1]/8v5[2:1],
8-3[2:1]/7-4[2:1],
1<4[2:3],
Ch[4:3],
2h[4:3],
3h[2:3]/8h[1:1],
{64},B8,{4},,,{16},,,{32},{1}4h[1:1]/1h[2:3],
{64},B4,{4},,,{16},,,{32},{64}5h[2:1]/2h[2:1],
{4},,{64}B5/B2,{4},{16},,,{32},{64}3h[2:1]/6h[2:1],
{4},,{64}B6/B3,{4},{16},,,{32},{4}7/4,
5/8,1/7,2/1x-7[8:1],
2x/1x-3[8:1],8x/1x<6[8:1],2x/1x>4[8:1],8x/1x,
5,2,7,1h[4:1],
{1}4V28[2:1]*V68[2:1],
{4}2,8,7,3,
2-4[8:1],2-8[8:1],2v7[8:1]*v5[8:1],2,
6,3,5,1h[4:1],
{1}8z4[2:1]*-5[2:1],
{4}3,7,8/1,1h[8:1]/8h[8:1],
{8}2/7,8/3,6/4,2/5,1-5[8:1]/8-4[8:1],3/6,{4}1b/8b,
{1}8h[2:3],
{2}3,2,
{4}1-5[8:1],{8},,,,4/6-3[8:1],7/3V51[8:3],
,,{4}B2,B3,4h[1:1],
{1}1<3[1:1],
{8},,,,4/6,3/7,,1<3[8:13],
{4}1h[4:1],B1,B2,B3,
B4,B5,B6,B7,
6/2h[8:7],{8},,,,8,8,
,,,,{4}7,{8}1,7,
1h[8:3],,,8,,,2,3,
{4}4-8[8:1],5-1[8:1],3-7[8:1],6-2[8:1],
{8}4pp8[8:9],,,1h[8:3],{16},,,,,,,,,,,,B1,
B2,{8}E3,,,{4}2/7<5p3[8:11],
{1}1h[4:5],
{8},,,,8,7,{4}6-2[8:1],
6x/1-6[8:1],1x/4-8[8:1],4x/5-1[8:1],5x/7,
7x/2-6[8:1],2x/4-8[8:1],4x/5-2[8:1],5x/7,
7x/1-5[8:1],1x/8-4[8:1],8x/6-3[8:1],6x/5-8[8:1],
5x/2-6[8:1],2x/7-4[8:1],7x/3w7[8:1],3x,
{8}5,5,3,3,7,7,2,2,
8,8,6,6,4,4,2,2,
8,8,7,7,6,6,5,5,
{4}4-8[8:1],4,{8}1w5[8:1],1,{4}1b,
{1}3V16[2:3]*V58[2:3],
{8},,,,,,,,5h[1:1],
,,,,4,3,2,
{4}1-4[8:1]*-3[8:1],1<3[4:1]*-6[8:1],{8}1x,{32},,,,,,,,2x,1x,8x,7x,
{8}6x/4,3,2/8,7,3/6-8[8:1],{16}5,4,{8}6,3,
2-7[8:1],2,8-5[8:1],8,4>8[8:1]*-2[16:1],4,{32}4,,,,,7x,6x,5x,
{8}4x-2[8:1],6,7/4,8,1-5[8:1],{16}2,8,{8}1,7,
6-2[8:1],6,1-5[8:1],1,8-6[16:1]*<4[8:1],8,{32}8,,,,,3x,2x,1x,
{8}8x-6[8:1],7,8/5-1[8:1],4,5/3,{32}E1,B8,B7,E7,{8}2-7[8:1],1,
2/6-3[8:1],5,6/2-7[8:1],1,2/6-4[16:1]*>3[8:1],6,{32}6,,,,,2x,1x,8x,
{8}7x-5[8:1],6,7/4-8[8:1],3,4,{32}E1,B1,B2,E3,{8}7-2[8:1],6,
7b/3<6[8:1],4,3b/7>2[8:1],8,7b/3<2[4:1],4,{4}3b,
{1}Ch[8:55],
,,,1-4[4:3],
,5-2[4:3],
{16},,1,8,2,7,3,6,4,5,4,5,4,5,4,5,
{4}3-5[8:1],3,7-5[8:1],7,
2-4[8:1],2,8-6[8:1],8,
Ch[4:7]/1-3[8:1],1,1-7[8:1],1,
1-3[8:1],1-7[8:1],{8}1,,,1,
7/2h[8:3],,,7,{2}3/6h[2:1],
{8}4h[4:3],,,5,{2}3,
{4}2b/3b,7b/6b,1b/8b,4b-1[8:1]/5b-8[8:1],
5b<4[2:1]/4b>5[2:1],,,Cfh[4:1],
B7/B6/B2/B3,{8}8,8,1,1,7,7,
2,2,6/3,6/3,4v2[8:1]/5v7[8:1],4/5,{4}4bq1[8:1]/5bp8[8:1],
4b/5b,{8}3,3,6,6,2,2,
7,7,1,1,8,8,{4}2-6[8:1]/7-3[8:1],
2b/7b,{8}5,5,3,3,7,7,
2,2,8,8,1-5[8:1],1,{4}1w5[8:1],
1b,{8}3,7,2,6,1,5,
8,4p7[8:1],,4,{16}8x,1x,2x,3x,4x,5x,7x/6xh[8:3],8x,
{8}1x,,,6xh[8:1]/2xh[8:1],,5xh[8:1]/1xh[8:1],,4xh[8:3],
{2}8x,{4}3b>8[16:1]*>8[16:1],{48}3b,E3,E2,E1,E8,E7,E6,E5,{12}E4,
{8}2x/1x,8,7/5,4,3/1-5[8:1],{16}2,8,{8}1,7,
6-3[8:1],6,4-1[8:1],4,8<4[8:1],7,{32}8b/3x,E8,E7,E6,{8}E5,
1/2,8,5/7,2,6/4-8[8:1],{16}5,3,{8}4,2,
3x/7x,3x/7x,2x/6x,6x/2x,1x-5[8:1]/5x-1[8:1],1x/5x,{16}5x/1x,Cf,,,{8}2/4,
6,8/7,1,4/2-6[8:1],{16}3,8,{8}2,7,
5-2[8:1],4,8-3[8:1],7,8/1>5[8:1],1x,{32}1b/6x,E2,E3,E4,{8}E5,
8/7,1,4/2,3,4/2h[8:3],{16}5,6,{8}7-3[8:1],8,
7b/2b-6[8:1],1,2b/8b-4[8:1],7,8b/1b-5[8:1]*V75[8:1],2,{4}1,
{8}2,7,3,8,{4}5>1[4:1],1<5[4:1],
5>1[4:1],1<5[4:1],4-2[8:1]*-2[8:1],4b<8[8:1],
{32}4b/1x,E5,E6,E7,{8}E8,,2,6,3,7,2,
6-3[8:1],2-7[8:1],6,2,4,8/5,{4}1/6>2[4:1],
2<6[4:1],6p2[4:1],2p6[4:1],6>3[4:1],
3>8[4:1],8<5[4:1],5bw1[8:1],{16}Cf,B8/B1/B2,,,{8}7/3,
7/3,7/3,7/3,4/8,4/8,4/8,4/8,
5/7,3/1,2/8,6/4,3/7-2[8:1],8/2-4[8:1],{4}7p4[1:2]*q1[1:2],
E
