&title=流
&artist=小野秀幸
&first=0.06
&des=白露の風
&des_5=
&lv_5=13+
&inote_5=(176){4},3,3,{8}3,5h[4:1],
{4}4,3,2/4,5h[4:1]/1-5[8:1],
1,6,6,{8}6,4h[4:1],
{4}5,6,7/5,4h[4:1]/8-4[8:1],
8,2,2,{8}2,4h[4:1],
{4}3,2,1/5,6h[4:1]/2-6[8:1],
2,7h[8:1],1h[8:1]/8h[8:1],{8}7/2,1,
8,1,{4}7b<5[8:1]/2b>4[8:1],,1v4[8:1]*p5[8:1],
,7p3[8:1],{8}3,2<7[8:1],,5qq5[4:1],
,5<1[16:3],{4},{8}2,2,,8/3q5[8:3],
,3h[8:3],{2},{8}7-5[8:1],5-7[8:1],
7V15[16:5],2h[8:3],{2},{4}2>4[8:1]/5<7[8:1],
,8<4[6:1],{8}4,3p6[24:5],,3h[8:3],
{4},4<8[4:1],8>4[4:1],4z8[16:5],
,3h[8:3],{8},1w5[2:1],{1},{4}7v4[8:1]*q3[8:1],
,2pp4[32:5],{8}6,7>2[8:1],,4pp4[4:1],
,4>8[16:3],{4},{8}7,7,,1/6pp5[8:3],
,6h[8:3],{2},{8}3>8[8:1],8>3[8:1],
3<8[4:1],5h[8:3],{2},{4}7<4[8:1]/4>1[8:1],
,8>4[6:1],{8}5,6q4[24:5],,6h[8:3],
{4},5>1[4:1],1<5[4:1],5>1[4:1],
{1}1qq6[8:5]*q4[8:5],
{8}3/5,3qq6[8:5]/5p4[8:5],{1},{4}3qq5[2:1],
{8},,,6q3[16:5],
{4}7>2[16:3],{2},{4}3/5,
{64}8b,1h,{32},,,,,,,{4}7/4>1[16:3],,{8}8,1q8[4:1],
,1h[4:1],{4},{16}1,2,3,4,{8}6,{16}7,5,
{8}7,4,{4}5/3h[4:1],{8},{16}4,4,{8}2,5,
1<6[4:1],1,{4}6>3[4:1],3>1[32:5],8,
7,{64}1h,6,{32},,,,,,,{8}3,3/4h[4:1],{4},{16}2,
4,3,5,{8}2,7/1,,7,2/6,{16}4,5,
{8}4,6,{4}7/5>8[16:5],1<4[16:5],5>8[16:5],
1<4[16:5],5>8[16:5],{2}1<4[3:1]*p4[3:1],
{4},1/2,3/8,{8}2,7p1[4:1],
,7h[4:1],{4},{16}7,6,5,4,{8}2,{16}2,4,
{8}3,5,{4}4/6h[4:1],{8},{16}5,5,{8}7,4,
8>3[4:1],8,{4}3<6[4:1],6<8[32:5],1,
2,{64}8h,3,{32},,,,,,,{8}6,6/5h[4:1],{4},{16}7,
5,6,4,{8}7,8/2,,2,3/7,{16}5,4,
{8}5,3,{4}2h/4<3[2:1],,3<2[2:1],
,2>1[2:1],,1w5[8:1],
,3b/7b,{8}5,4qq5[8:3],,4/5,
,7,{4}8p4[8:1],3,{8}2-5[8:1],5-1[8:1],
{4}2,7V58[8:3],{8}7,8qq4[2:1],,2,
,3h[8:3],{2},{8}2/4-8[8:1],1-5[8:1],
{4},7<4[8:1],{8}7qq8[2:1],3qq4[8:3],{4},,,4>7[16:5],
8<3[16:5],
4>1[16:3],7,{8}8,8>4[4:1],,4V61[16:5]*<8[4:1],
{4},,,8v3[8:1]*p4[8:1],
,6/2,{8}1,5pp4[8:3],,5/4,
,2,{4}1q5[8:1],6,{8}8-4[8:1],4-7[8:1],
{4}8,2V41[8:3],{8}2,1pp5[2:1],,7,
,6h[8:3],{2},{8}7/5-1[8:1],8-4[8:1],
{4},2<7[8:1],{8}2qq3[2:1],5pp4[8:3],{4},,,{2}4s8[4:1]*z8[4:1],
{4},1b/6b-2[8:1],{8},8b-4[8:1],{4},5bV73[16:5]*<1[4:1],
{2},{4}1p5[8:1]*v4[8:1],
,2b/7bp3[8:1],{8}3,2<7[8:1],,5<4[4:1],
,4-8[32:5],{4},{8}1,2,,3q5[16:7]/7p5[16:7],
{4},,,{8}2>4[8:1]/6>4[8:1],4>8[4:1]*<8[4:1],
{4},,,1>4[8:1]/8<5[8:1],
,{16}3,6,4,5,3,6,4,5,3,6,4,5,
3,6,4,5,3,6,2,7,1,8,2,7,{8}3,6/4,
7/3,8/2,1>4[8:1],5<8[8:1],1,5,,1<1[8:5],
1>8[2:1],1b,{4},,,{24}2,
3,4,6,7,8,{8}2b,{16}8,1,{8}7,{16}3,4,{8}3,{16}7,8,
{8}6,{16}2,4,{8}2,{16}7,8,{8}5,{16}1,4,{8}1,{16}6,4,
{8}5,{16}2,1,{8}2,{16}7,5,{8}6,{16}3,1,{8}3,{16}8,4,
8,4>8[4:1],{8}8<4[16:3],{2},{4}8q4[8:1]/4q8[8:1],
,{8}2,{16}7,8,{8}6,{16}4,5,{8}2,{16}6,5,
{8}8,{32}2,3,4,5,6,7,8,1,2,3,4,5,6p4[4:1],7,8,1,2,3,4,5,{8},,,{16}2,
6,2,6,2,6,2,6,2,6,2,6,2,6,
2,6,3,7,3,7,3,7,3,7,3q8[16:3],7q4[16:3],{2},{16}2,
6,2,6,2,6,2,6,2,6,{8}3>8[8:1],
8v5[8:1]*q4[8:1],3b,
E
