&title=Chaotic Ørder
&artist=TAG VS Kai
&first=-0.78
&des=ttkr
&lv_5=15+
&inote_5=(165){1},
{16}5,5,4,5,3,6,4,4,5,4,6,3,5,5,3,6,4,4,5,4,6,3,5,5,4,5,3,6,4b,5b,4b,5b,4b,4,5,4,6,3,5,5,4,5,3,6,4,4,6,3,5,5,4,5,3,6,4,4h[8:1],,5,3,3,6,6,2,7,1bw5[16:67]/8bw4[16:67],,,,,,,,,,,,,,,,,,,,,,,,,,,,1-5[8:1]/8-4[8:1],,,,1b/8b,,,3b/6b,,,,,,,,,1,8,2,7,4b/5b,,,3b/6b,,,2b/7b,,,,{32}7,2,8,1,{16}2b/7b,,,,
{16}3b/6b,6,4,4,3,2,5,5,3,3,4,2,5,5,6,7,3,3,5,5,6,7,4,4,6,6,5,7,4,4,2,3,6,6,4,4,3,2,5,5,3,3,4,2,5,5,6,7,3,3,5,5,6,7,4,4,
{32}6,7,8,1,6,7,8,1,2,3,4,5,2,3,4,5,
{16}1b,1,8,8,6,7,1,1,7,7,6,8,1,1,3,2,8,8,1,1,3,2,8,8,2,2,3,1,8,8,7,6,1,1,8,8,6,7,1,1,7,7,6,8,1,1,3,2,
{32}8,7,6,5,4,5,6,7,6,5,4,3,4,5,6,7,
{16}1b,8b,1b,8b,1b,8b,1b,8b,2h[16:1],4h[16:1],3h[16:1],5h[16:1],4h[16:1],6h[16:1],5h[16:1],7h[16:1],4h[16:1],8h[16:1],3h[16:1],7h[16:1],2h[16:1],6h[16:1],1h[16:1],5h[16:1],
{24}8b,7hh[32:1],6h[32:1],5,{48}4,5b,{24}3,2,1,8,7b/3b,2h[32:1],1h[32:1],8,7,6,5h[32:1],4h[32:1],3h[32:1],2b/6b,5,4,3h[32:1],2h[32:1],1h[32:1],
{16}7b/8b,,,,35,,,,5b/6b,,7^4[8:1],7,8,8,17,,,,3v8[8:1],3,4,4,35,,7b,,6,6,5-8[8:1],5,4,4,35,,2,2,13,,6,6,5b/7b,,2^5[8:1],2,1,1,28,,,,6v1[8:1],6,5,5,46,,2b,,3,3,4,4,5,5,7,6,6,6,7,5,5,5,6b,6,4-1[8:1],5,5,5,4,6,6,6,5,5,4,4,3,3,2b,2,1,1,8,8,7,7,
{24}6,4h[24:1],6,4h[24:1],6,4h[24:1],5h[24:1],3,5h[24:1],3,5h[24:1],3,
{32}6b,7,8,1,4,3,2,1,7,8,1,2,3,2,1,8,
{16}5b,,7,4b/8b,,2,1b/5b,,
{32}6p2[8:1],7,8,1,6,7,8,1,
{16}6b>6[2:1],,,,4b/6b,,,,,,,,,,5,5,3,3,4,4,1,1,3qq8[4:1],2,2,4,3,,,7,6,5,4,3,2,1,
{24}78,6,5,4,5,6,73,4,5,6,7,8,21,3,4,5,4,3,26,5,4,3,2,1,
{16}78,6,5,43,2,1,7bp3[8:1]/8b,,,7,{24}3,4,5,{16}6<6[2:1],1,2,8,6b,,,,,,,,,,7,7,1,1,8,8,2,2,4qq1[4:1],3,3,5,4,,,8,7,6,54,3,2,1,
{24}78,6,5,4,5,6,7,6,5,4,3,2,18,2,3,4,5,6,
{16}78,1,2,3,4b/6b,7,8<3[32:7],1b/2b,3,4,5h[8:3]/8b,,,,{32}2,1,8,7,
{16}6b,,,,3b/5b,,7/8,,1,1,28,,34,,6,6,5,5,46,,35,,78,,1,1,28,,36,5,4,5,36,4,5,4,3b/6b,,12,,8,8,17,,56,,3,3,4,4,35,,46,,12,,8,8,17,,
{24}6,5,4,3,4,5,6,5,4,3,4,5,{16}36,,4b,4,5,5,3,3,{24}7b,6,5,4,{48}3,5b,{24}4,5,6,5,4b,3,2,{16}1b/3b,,5b,5,4,4,6,6,5b,8,8,4b,7,{32}3,4,{16}3b,6,
{24}2b,3,4,1b,2,3,8b,1,2,7b,8,1,6b,7,8,5b,6,7,4b,5,6,3b,4,5,
{32}2b,3,4,5,1b/6b,7,8,1,2b/5b,3,4,5,8b/6b,7,8,1,2b/4b,3,4,5,7b/6b,7,8,1,
{16}2b/3b,,,,4/5b,4,4h[8:3],,6b,,,,7b,,5,4,5b,3,4,3,2/1b,2,2h[8:3],,7b,,,,6b,,1,8,1b,7,8,7,6/5b,6,6h[8:3],,3b,,,,1b,,4,3,4b,2,3,2,8b/1,1,1h[8:1],,7b,,46,,3b/5b,3,4,5,6b/4b,6,5,4,5b,5,3h[8:1],6,6,4h[8:1],7,7,
{32}1b,2,3h,4,5b/1b,2,3h,4,5b/1b,8,7h,6,5b/1b,8,7h,6,
{16}4b,4,5h[8:1],3,3,6h[8:1],2,2,
{32}8b,7,6h,5,4b/8b,7,6h,5,4b/8b,1,2h,3,4b/8b,1,2h,3,
{16}6b,,5,46,3b/7b,,4,35,2b/6b,,45,36,2b/7b,,{24}45,36,27,{16}1b/8b,,,2b/7b,,,3b/6b,,{24}4b,5,{12}3,6,2b/7b,27,27,{1}1b<1[16:35]/8h[4:7],,{16}1,,,1^6[16:13]*p5[16:13],,,,,,,,,,,,,,,,,,,4,4,3,3,5,5,2,2,6,6,1b,8,8,8,1,8,8,8,1,8,7,8,8,8,1,8,8,8,1,8,8,8,7,8,1,8,6,8,2,8,7,8,1,8,8,8,8,8,8,8,8,8,8,8,8,8,8,8,1,1,7,7,2,2,6,{48}5,4,3,{16}2,{48}4,5,6,{16}7,{48}5,4,3,{16}1b-4[8:1]/2,,3b/7b,,1b/5-8[8:1],,6,,2-6[8:1]/5b,,1-5[8:1],,2b/7,,1bV72[8:1],,3,,1b-4[8:1]/6,,5,,1b/7-5[8:1],,8-3[8:1],,7b-4[8:1],,8b-2[8:1],,7b-5[8:1],,8b-3[8:1],,7b,,8bV61[8:1],,7,,3-5[8:1]/8b,,2-7[8:1],,3b,,2bV48[8:1],,3,,2b/6,,7,7,5b,5,6,6,4b,4,5bw1[8:1],5,5b,5,{32}5b,,,,,,,,
{16}8b,1,82,3,84,5,86,7,68,5,48,3,{32}28,1,8,7,2,1,8,7,
{16}2b/6b,5,42,3,42,5,62,7,82,7,6b/2b,5,{32}2b/4b,3,2,1,4,3,2,1,
{32}4b/8b,5h[36:1],6h[48:1],7h[64:1],{16}8h/3,4,58,6,57,8,
{32}5b/1b,4h[36:1],3h[48:1],2h[64:1],{16}1h/6,5,41,3,24,1,
{32}4b/8b,5h[36:1],6h[48:1],7h[64:1],{16}8h/3b,3,
{32}5b,6h[36:1],7h[48:1],8h[64:1],{16}1h/3b,3,
{32}4b,5h[36:1],6h[48:1],7h[64:1],8h/5b,4h[36:1],3h[48:1],2h[64:1],
{48}1h/5b,6h[75:1],7h,4b,3h[75:1],2h,6b,7h[75:1],8h,3b,2h[75:1],1h,
{16},,,,27,,5,4,3b/6b,,,2b/7b,,,1bs5[16:17],,
{40}7b,6,5,4,3,2b,3h,4h,5h,6h,7b,6,5,4,3,2b,3h,4h,5h,6h,7b,6,5,4,3,2b,3h,4h,5h,6h,
{16}7b/8bz4[8:1]*z4[8:1],,,,1b/8b,,,,37,,
{48}12,3,4,{8}5h[8:1],{48}3,4,5,{8}6h[4:1],7,5,3/4h[4:1],{48}8-4[8:1],7,6,5,,3,{8}2-5[8:1],8,2^7[8:1]*p6[8:1],,2b,,
{48}5-8[16:1]/6,4,3,{16}2h[8:1],,5,,,1,,{48}4-1[16:1]/3,5,6,{16}7h[8:1],,4,,,8,,{48}4qq2[8:1]/5pp7[8:1],36,27,{16}18,,,45,,,,36,4,5,4,36,5,4,5,6h[16:3]/3b,4,5,,7,8,1,2,37,6,5,41,2,3,48,7,3h[16:3]/6b,5,4,,2,1,8,7,62,3,4,58,7,6,51,2,
{24}3b,4,3,4,3,4,2b,4,3,4,3,4,2b,5,4,5,4,5,1b,6,5,6,5,6,
{48}5bw1[55#24:1],4b,3b,{16}2b,,{48}4bw8[73.3333333333#18:1],5b,6b,{16}7b,,{48}4bw8[110#12:1]/5bw1[110#12:1],3b/6b,2b/7b,{16}1b/8b,,,{32}4,5,3,6,{16}4b/5b,,,,
{16}3b/6b,,4,4^1[8:1],5,3,6,4,7,7,8h[8:1],6,6,1h[8:1],5,5h[8:1],3,3,2h[8:1],4,4,1h[8:1],5,5,8<2[8:1],,4b/6b,,7b/8b,,1,1h[8:1],3,3,4h[8:1],2,2,5h[8:1],1,1h[8:1],6,6,7h[8:1],5,5,8h[8:1],4,4,1^4[8:1],,3,2,1,8,7,6,2/5^8[8:1]*q1[8:1],,3b/4b,,5b,,,,
{24}4,8h[24:1],4,7h[24:1],4,6h[24:1],4b,5h[24:1],4,3h[24:1],4,2h[24:1],4,1h[24:1],4,2h[24:1],4,3h[24:1],4b,5h[24:1],4,6h[24:1],4,7h[24:1],4h[24:1],8,3h[24:1],8,2h[24:1],8,1bw5[82.5#16:1],8,7h[24:1],8,6h[24:1],8,5h[24:1],8,6h[24:1],8b,7h[24:1],8,
{16}1b,,,,3b/6b,2,7,2,4b/5b,3,6,3,{32}4b,5b,6b,7b,8b/5b,4b,3b,2b,{48}1b/5bs1[8:1],6h[75:1],7h,4b,3h[75:1],2h,6b,7h[75:1],8h,3b,2h[75:1],1h,
{16}5b^2[16:1]*^8[16:1],,,5bw1[16:1],,,5b,,,,,,1bw5[8:3]/8bw4[8:3],,,,
{16}1b/8b,,,,,,,,6,3,5,5,4,6,5,7,6,7,8,7,8,1,8,1,2,1,1,2,2,3,4,5,4,6,5,7,6,5,6,5,4,5,4,3,4,3,2,3,
{32}1b,2,3,4,6h,5h,4h,3h,7b,6,5,4,2h,3h,4h,5h,
{32}6b/8b,7,6,5,4b/8b,7,6,5,4b/8b<4[8:1],1,2,3,4b<8[8:1]/8b,1,2,3,
{16}4b/8b>4[8:1],,,,,,,,5,3,4,5,4,7,6,5,
{48}8,7h,6b,5,4b,3h,2,3b,4h,5,6h,7b,1,2h,3b,4,5b,6h,7,6b,5h,4,3b,2h,
{8}1/8^5[32:3],{32}2h,3h,4h,5h,8b/4h,3h,2h,1h,4h,3h,2h,1,
{32}8/3h,2h,1h,8h,3b,2,1,8,7h,6h,5h,4h,7b,6,5,4,8/5h,6h,7h,8h,1b/5b,6,7,8,6h,7h,8h,1h,6b,7,8,1,
{16}2b,8,1,8,3b/6b,2,7,2,4b/5b,3,6,3,1b/8b,2,7b,2,4b/5b,45,45,45,,,3b/6b,36,36,36,,,2b/7b,27,27,27,,,1h[8:5]/8h[8:3],,,,,,,,,,,,,,
{24}6,5,4,3,4,5,3,4,5,6,5,4,5,6,7,4,5,6,4,5,6,3,4,5,
{72}2b,3,4,{24}5,6,5,4,3,{72}4b,5,6,{24}7,6,5,4,3,{72}5b,4,3,{24}2,4,5,6,7,1b-5[8:1],8b,1b,8b,1b,8b,
{4}1b,,1b>8[2:3]/8b<1[2:3],,,,,,,
{8},{24}18,27,36,{4}4b/5b,,,,,,
