&title=戦い:ヒスイの人
&artist=一之瀬剛
&first=0
&des=Pokémon M@ster
&lv_5=14
&inote_5=(188)
{16},,,,,,,,,,,,,,4,4,
6-1[8:1],,6,,3h[2:1],,,,,,,,8,,2,1,
2h[4:1],,,,8,,7h[4:1],,,,1,,2,,6,6,
4-1[8:1],,4,,5h[2:1],,,,,,,,1,,2,4,
2h[4:1],,1,,8,,7h[4:1],,8,,1,,2,,5,5,
3-8[8:1],,3,,6h[2:1],,,,,,,,1,,7,8,
7h[4:1],,,,1,,2h[4:1],,,,8,,7,,3,3,
5-8[8:1],,5,,4h[2:1],,,,,,,,8,,7,5,
7h[4:1],,8,,1,,2h[4:1],,1,,8,,7,,4,4,
5>6[2:1],,3,,2h[2:1],,,,,,,,,,2,1,
3-5[8:1],,3,,6,,7-3[8:1],,7,,3,,2,,1,1,
8pp4[2:1],,7,,6h[2:1],,,,,,,,,,6,5,
7-1[8:1],,7,,1,,3-7[8:1],,3,,7,,6,,5,5,
4<3[2:1],,6,,7h[2:1],,,,,,,,,,7,8,
6-4[8:1],,6,,3,,2-6[8:1],,2,,6,,7,,8,8,
1s5[2:1],,2,,3h[2:1],,,,,,,,,,3,4,
2b/5b,,,,,,,,,,,,,,,,
(140){16}
8/2,,,3,4,3,5,3,6,3,7,3,8,3,1h[8:1],,
2,1h[8:1],,2,1,,3,5,4,,
1/7,,,6,5,6,4,6,3,6,2,6,1,6,8h[8:1],,
7,8h[8:1],,7,8,,6,4,5,3,
7-4[8:1],,4-8[8:1],4,,,2-5[8:1],,1,,2,,8,,7h[8:1],,
5,6,4,5,3h[8:1],,4,3,5,4,
6-8[8:1],,7,,3,3,,2,2,8,1,,2b/7b,,6,6,
5,7,3,3,4,2,5,5,4,6,
2-5[8:1],,5-1[8:1],5,,,7-4[8:1],,8,,7,,1,,2h[8:1],,
4,3,5,4,6h[8:1],,5,6,4,5,
3-5[8:1],,4,2,,,7-4[8:1],,6,8,,,1-5[8:1],,2,8,
,7,7-2[8:1]*-4[8:1],,6,,7b,,,,
3-1[8:1]/5,,6,6,,4,4-8[8:1],,2,2,,3,3-6[8:1],,7,7,
,,8,8h[16:5],6b,,4b,,2b,,
6-8[8:1]/4,,3,3,,5,5-1[8:1],,6,6,,7,7-4[8:1],,2,2,
,,3,3h[16:5],5b,,1b,,7b,,
26,,3,4,3,4,2,,8,8,1,,27,,6,5,
6,5,7,,48,,26,,7,1,
7,8b-3[16:1],,,6b-1[16:1],,,2b-5[16:1],,,7b-4[16:1],,8,,1,1b-5[16:1],
,5,5b,,6,6,,3,37,,
6^1[8:1]/4,,3,3,,4,4-8[8:1],,7,7,,6,6h[8:1],,2,2,
7,8,7,1,7,2,7,3,7,4,
3^8[8:1]/5,,6,6,,7,7-3[8:1],,2,2,,1,1h[8:1],,5,5,
2,4,2,5,2,6,2,7,2,8,
73,,6,5,6,5,7,,1,1,8,,72,,3,4,
3,4,2,,51,,73,,1,8,
2b,7,3h[4:1],6b,,,2b,3,1,2b,8,1,7b,8,6,7b,
5pp4[4:1],,,,1,,1,,1,,
(186.667){12}
2/3-6[8:1],,,1^4[8:1],,,7,,7,,6,5,8,8,8,2,
,2,8,8,8,6,,6,
7p3[8:1],,,3,,,1,,2,4,,5,26,,7,5,
,4,37,,1b/5b,,,,
7/6-3[8:1],,,8^5[8:1],,,2,,2,,3,4,1,1,1,7,
,7,1,1,1,3,,3,
2q6[8:1],,,6,,,8,,7,5,,4,53,,2,8,
,7,68,,1b/5b,,,,
2-5[8:1]/5,,,21,,,7-4[8:1]/4,,,78,,1,
1^4[8:1]/5^8[8:1],,,15,,,1-5[8:1],3,7,1b,,,
7-3[8:1]/4,,,71,,,2-6[8:1]/5,,,28,,1,
1-6[8:1]/5-2[8:1],,,15,,,8w4[8:1],1,7,8b>7[2:3],,,
6h[4:1],,,,,,8h[4:1],,,,,,
2h[4:1],,,,,,4h[4:1],,,,,,
6,6,6,5,,4,5,,6,5,,3,
4,4,4,4,,2,1,1,,2b/8b,,37,
3qq7[93.333#16:5]/7h[2:1],,,,,,3b,,,,,,
,,,,6,6,57,,34,,28,,
5pp4[93.333#16:5]*<4[93.333#16:5]/6,,,,,,5b,,,,,,
,,,,2,2,13,,46,,17,,
2qq6[93.333#16:5]/4qq5[93.333#16:5],,,,,,2b/4b,,,,,,
,,,,7,7,68,,14,,57,,
3qq8[93.333#16:5]/8,,,,,,3b/5^8[93.333#16:1],,,,,,
,,,,1,1,28,,37,,46,,
{16}3-5[8:1],,2,,{12}7-1[8:1],,,2-4[8:1],,,7-1[8:1],,,
1,,,2,4,3,{16}5v8[8:1],,1,,2,,3,,
{16}4-2[8:1],,8,,{12}7-5[8:1],,,3-1[8:1],,,7-5[8:1],,,
2,,,3,5,4,6,,5/7h[6:1],,1,1,
{16}6-4[8:1],,7,,{12}2-8[8:1],,,7-5[8:1],,,2-8[8:1],,,
8,,,7,5,6,{16}4v1[8:1],,8,,7,,6,,
{16}5-3[8:1],,1,,{12}2-8[8:1],,,6-4[8:1],,,1pp4[8:3],,,
7-5[8:1]/1,,,7,,,6b,4b,8b,3b,5b,1b,
{16}
2^4[8:1]/8h[8:3],,,,,,,,8/5-1[8:1],,,,3,,,,
2^4[8:1]/8h[8:3],,,,,,,,8/5-1[8:1],,5,,4,,3,,
2^4[8:1]/8h[8:3],,,,,,,,8/5-1[8:1],,,,3,,,,
2^4[8:1]/8h[8:3],,,,,,,,8/5-1[8:1],,5-8[8:1],,,,,,
2^4[8:1],,2,,7,,6pp1[8:3],,,,5,,4,,3,,
2^4[8:1],,2,,7,,6pp1[8:3],,,,5,,4,,3,,
2^4[8:1],,2,,8,,1qq5[8:3],,,,5,,4,,3,,
2^4[8:1],,2,,7,,6pp1[8:3],,,,5,,4,,3,,
2>1[2:1],,2h[8:4],,,,,,,,,,2q6[8:1],,,,
7<8[2:1],,7h[8:4],,,,,,,,,,7p3[8:1],,,,
4^1[8:1]*^7[8:1],,,,4,,,,26,,,,8,,8,,
57,,64,,35,,24,,1b-5[8:1],,5b,,6b,,7b,,
8h[1:3],,6,,7,,7,,5,,5,,4,,4,,
5,,6,,7,,7,,5,,5,,4,,4,,
5,,6,,7,,7,,5,,5,,4,,4,,
5,,6,,7,,7,,8v3[8:1],,7v4[8:1],,,,,,
1h[4:1],,3,,8h[8:5],,2,,4,,4,,5,,5,,
8h[4:1],,6,,1h[8:5],,7,,5,,5,,4,,4,,
1h[4:1],,3,,8h[8:5],,2,,4,,4,,5,,5,,
8h[4:1],,6,,1h[2:1],,7,,5,,5,,4^7[8:1],,2,2,
4b,,1^4[8:1],,8,,1b/7,,6^1[8:1],,5,,6b/4,,3^6[8:1],,
2,,3b/1,,8-4[8:1],,7,,8b/6,,6,,5^2[8:1],,7,7,
5b,,8^5[8:1],,1,,8b/2,,3^8[8:1],,4,,3b/5,,6^3[8:1],,
7,,6b/8,,1-5[8:1],,2,,1b/3,,3,,{12}7b,7b,7b,
{12}
3,5,4,6,4,5,2,4,3,7,5,6,
{24}8h[256:1],1h[256:1],{12}2h[256:1],4,{24}1h[256:1],8h[256:1],{12}7h[256:1],5,1,4,2,8,5,7,
3b/6b,,1b/8b,,4,5,2,4,3,7,5,6,
{24}8h[256:1],1h[256:1],{12}2h[256:1],4,{24}1h[256:1],8h[256:1],{12}7h[256:1],5,1,1,3,1,4,1,
5,1,6,1,87,,{24}1b/6b,27,38,41,5,6,7,8,1,2,3,4,
8,7,6,54,3,2,7,6,5,43,2,1,{16}8,4b,4b,4b,
,,,,,,,,,,,,
,,,,,,,,,
E
