&title=I can avoid it.#φωφ
&artist=Feryquitous
&first=0.09
&des=φωφ
&lv_5=13+
&inote_5=(130){1},
{4}5,5,5,5,4h[4:3]/3,2,3,2,35,15,65,85,
{16}37,,6,6,4,5,3,4,1s5[16:3],,37,,1b,,,,
{4}6h[8:1],6h[8:1]/4,{16}6h[8:1]/8,,,2,6h[8:1],,4,,
{16}6h[8:1]/2,,3,3,6h[8:1],4,,37,,4,5,3,4h[8:1],,,,
{4}3h[8:1]/6,3h[8:1]/4,{16}3h[8:1]/1,,,7,3h[8:1],,5,,
{16}3h[8:1]/7,,6,6,3h[8:1],5,,62,,5,4,6,5h[8:1],,,,
{16}6h[8:1]/4,,,,2h[8:1]/4,,,,6h[8:1]/4,,2,4,1h[8:1],,5,,
{16}2h[8:1]/6,,7,7,3h[8:1],8,,47,,5,6,4,5h[8:1],,,,
{16}3h[8:1]/5,,,,7h[8:1]/5,,,,3h[8:1]/5,,7,5,8h[8:1],,4,,
{16}7h[8:1]/3,,2,2,6h[8:1],1,,5,{12}2b,3b,4b,5b,6b,7b,
{16}2>5[8:1]/8<5[8:1],,,,28,,,,7h[8:1]/4,,2,4,1h[8:1],,5,,
{16}4/7h[8:1],,3,4,2h[16:2],5,,16,,{32}7<8[16:3],8,{16}7,,1b,,,,
{16}4h[8:1],,,,7h[8:1]/5,,3,5,2h[8:1],,7,5,8h[8:1],,4,,
{16}5/2h[8:1],,6,5,7h[16:2],4,,83,,{32}2>1[16:3],1,{16}2,,8b,,,,
{16}5h[8:1],,,,2h[8:1]/4,,7,4,6h[8:1],,1,4,2h[8:1],,5,,
{16}4/6h[8:1],,2,4,3h[16:2],5,,47,,{32}6<4[16:3],5,{16}6,,4b,,,,
{16}5h[8:1],,,,7h[8:1]/5,,2,5,3h[8:1],,8,5,7h[8:1],,4,,
{16}5/3h[8:1],,7,5,6h[16:3],4,,,{12}5/3,5/3,5/3,6/4,6/4,6/4,
{4}5b-8[8:1]/7b,45,4-1[8:1]/2,45,
{4}5<8[8:1]/7,45,4>1[8:1]/2,45,
{8}5-8[8:1]/7,4,35,3,4-1[8:1]/2,5,46,6,
{8}5<8[8:1]/7,4,35,3,4>1[8:1]/2,5,46,,
{4}8<5[8:1]/7,18,1>4[8:1]/2,18,
{8}8<5[8:1]/7,,18,2,1>4[8:1]/3,,18,7,
{8}8<5[8:1]/6,1,28,3,1>4[8:1]/2,8,17,6,
{16}4h[8:1]/5h[8:1],,,2h[8:1]/3h[8:1],,,1h[8:1]/8h[8:1],,,6/7,,{32}4,5,{16}4,6,,2,
{8}28,{24}3,5,4,{16}6h[16:3],7,,8,5,1V37[32:6],4,2h[4:1],,,,,
{8},{24}4,6,5,{16}7h[16:3],8,,1,6,2p4[32:5],5,3h[4:1],,,,,
{8},{24}3,5,4,{16}6h[16:3],7,,8,5,1,4,2h[8:1],,1,,3,
{16}7,5,6,6,3,4,2,2,8,4p6[32:5],6,2h[4:1],,,,,
{8},{24}6,4,5,{16}3h[16:3],2,,1,4,8V62[16:3],5,7h[4:1],,,,,
{8},{24}5,3,4,{16}2h[16:3],1,,8,3,7q5[32:5],4,6h[4:1],,,,,
{8},{24}6,4,5,{16}3h[16:3],2,,1,4,8,5,7h[8:1],,8-4[16:1],,6,
{4}8/5s1[4:1],,{16},,,2h[384:1]/7h[384:1],,2h[384:1]/7h[384:1],,36,
{16}3b-8[8:1]/6b,,2,,3/6>3[8:1],,7,,1/6,,2,2,4<7[16:2],3,,,
{16}4/2,,3,,4pp6[8:1],6,,2,4,,1,,2-5[8:1]/5,,34,,
{16}2/7>5[16:3],,6,6,,,,,1,,3,4,,6h[16:5],{32}5p4[4:1],4,3,2,
{32}1,8,7,,{8},,,{16}7h[8:1],,5,5,,48,,36,
{16}6-1[8:1]/3,,7,,6/3<6[8:1],,2,,8/3,,7,7,5>2[16:2],6,,,
{16}5/7,,6,,5qq3[8:1],3,,7,5,,8,,7v4[8:1]/4,,65,,
{16}7/2<4[16:3],,3,3,,,,,8,,6,5,,3h[16:5],{32}4z8[16:4],5,6,7,
{32}8,1,2,,{8},,,,18,2>5[32:3]/7h[12:1],3h[12:1]/8,
{32}1b,8,7,6h[32:5],{16},,5,7,4,5,2pp8[16:5],4,3,6h[16:5],2,,,,
{24},,,7,6,5,4/8h[8:1],,,3,4,5,{16}6/1q5[8:1],1,7,7h[16:3],,,,,
{16}6,4,,35,,2,4,3,6,5,7,3h[8:1],,5,3,4,
{16}2,1,3,8,5,6,4,7,2-8[32:3],,8q4[32:4],8,2,,,,
{16}7,5,6,4,5,3,6,4,8,5,6,3,4,2,5,1h[16:3],
{16},,7,7,,26,,35,,2/4<8[8:1],2/4,,,,,,
{16}3,5,,64,,7,5,6,3,4,2,6h[8:1],,4,6,5,
{16}7,7,5,5,6,6,4,,{12}7b/5b,75,75,8b/6b-2[8:1],86,86,
{4}8bz4[4:6]/6b,,,,,,,,35,35,35,35,46,57,68,71,
{4}2h[8:1]/8,2h[8:1]/4,2h[8:1]/8,2h[8:1]/4,
{4}6h[8:1]/4,2h[8:1]/4,6h[8:1]/4,2h[8:1]/4,
{4}6h[8:1]/5,3h[8:1]/4,7h[8:1]/5,2h[8:1]/4>7[16:3],
{4}4/7s3[16:4],,,{8}3h[12:1]/8h[12:1],7h[12:1]/4h[12:1],
{8}6b/5bv8[8:1],4,3<6[8:1]/5,2,38,{16}7,7,5p1[8:1],6,,,
{16}57,,6,,5qq3[8:1],3,,7,5,,8,,7-4[8:1]/4,,65,,
{16}7/2<4[16:3],,3,3,,,,,8,,7,5,,2h[16:5],{32}4q5[4:1],5,6,7,
{32}8,1,,3,{8},,,{16}3h[8:1],,4,4,,52,,43,
{8}3/4v1[8:1],5,6>3[8:1]/4,7,61,{16}2,2,4q8[8:1],3,,,
{16}42,,3,,4pp6[8:1],6,,2,4,,1,,2v5[8:1]/5,,34,,
{16}2/7>5[16:3],,6,6,,,,,1,,2,4,,7,5,,
{32}6/3h[4:1],5s1[32:11],4z8[32:10],,2,1,8,7,{8}6,,,,{24}27,,3,5,,6,
{16}4b<7[8:1],,3,,42,,1,1,8-4[8:1],,7,,86,,{24}5,6,7,
{24}8h[8:1]/4,,,6,7,8,1h[8:1]/5,,,4,3,2,1h[8:1]/5,,,3,2,1,{16}8h[8:1]/4<7[8:1],,,,
{16}2-5[8:1]/4,,3,,8/2v8[8:1],,7,7,2,,6,,7/1h[8:1],,{24}7,6,5,
{24}4h[8:1]/8,,,8,7,6,5h[8:1]/1,,,1,2,3,4h[8:1]/8,,,2,3,4,{16}5h[8:1]/1<6[8:1],,,,
{16}3/1>4[8:1],,2,,1/5-1[8:1],,7,7,5,,6,,3/5h[8:1],,{24}3,2,1,
{24}8h[8:1]/4,,,4,3,2,1h[8:1]/5,,,5,6,7,8h[8:1]/4,,,6,7,8,{16}1h[8:1]/5>2[8:1],,,,
{16}7-4[8:1]/5,,6,,1/7v1[8:1],,2,2,7,,3,,2/8h[8:1],,{24}2,3,4,
{16}5h[8:1]/6,,7,7,,4,,18,,,2,2,,4,,56,E
