&title=Tachyon
&artist=Zekk
&first=-0.407
&des=Dstar
&lv_5=14+
&des_5=Dstar
&inote_5=
(165){4},,Ch[4:1],{48}B7,B6,{24}B5,,,,,{8}4/5,
{16}4,6,{8}4,5/4,6/3,3,3/5,5,
5/4,{16}6,5,{8}6,4/6,7/3,2,8/2,7,
6/4,{16}4,5,{8}4,4/6,3/5,2,4/6,7,
3/5,{16}3,5,{8}3,2/6,7/1-5[12:1],2/8,{4}1/7,
{8}5/4,{16}5,3,{8}5,4/5,3/6,6,6/4,4,
4/5,{16}3,4,{8}3/5,3,2/6,7,1/7,2,
3/5,{16}5,4,{8}5/3,4,4/6,8/2,5/3,1/7,
{4}4h[4:1]/6<2[8:1],{8}6x,{64}A5,D6,A6,D7,A7,D8,A8,D1,{4}A1/5w1[12:1],5x,
{1}5bx/3bxpp8[8:5],
6pp1[8:5],
4qq8[8:5],
{4}5qq7[8:5],E1,E2,E3,
8x/3h[4:1],6,8/7h[4:1],2,
4/8,2/6,1/7,4/6,
{8}2/5,3/6,4/7,5/8,{16}5,1,5,8,5,7,5,6,
{4}5b-2-8[16:3],8/5<8[8:1],{8}5/2,3,4/1,5/7,
{4}3/4-6[16:1]*-7[12:1],4b,{8}6/1,{32}2,3,4,5,{8}7/6x,8,
{4}1/7-2[12:1]*-3[12:1],7,{8}2/6,{32}1,2,3,4,{8}5x/6,2/8,
{4}3/5-7[16:1]*-8[12:1],5,{8}1/6,{32}8,1,2,3,{8}4x/5,3/7,
5x/1x>4[8:1],4xq8[8:1],8x<5[8:1],5xp1[8:1],1x,8x,{4}7x-5[16:1]*-4[12:1],
7b-1[16:1]*-2[12:1],7,{8}6/2,{32}7,6,5,4,{8}3x/2,1,
{4}8/2-7[12:1]*-6[12:1],2,{8}7/3,{32}8,7,6,5,{8}4x/3,7/1,
{4}6/4-2[16:1]*-1[12:1],4,{8}8/3,{32}1,8,7,6,{8}5x/4,2-5[12:1]/6-1[12:1],
{24},,{12}2/6,{48},,,,{16}7b/Cf/B3/B4/E4/A4/A3/D4,,,2b/Cf/B6/E7/E6/A6/D6/D7,,,{8}8b/Cf/B4/E5/E4/D4/A4/D5/B5/B3,{16},1x/6x,{64},,,,,,,,5x/4x,
,,,,,,,,B2,B1,B8,B7,B6,B5,B4,{4}B3/Cf,{16}7-3[8:1],,,8,{8}7-5[16:1],1,
{4}7b/4b-2[16:1]*-8[12:1],4,{8}7/3>8[12:1],{32}8,7,6,5,{8}3/4x-8[12:1],5,
{4}4/2-5[12:1]*-7[12:1],2,{8}2/6<1[12:1],{32}1,2,3,4,{8}6/5x,4,
3>1[8:1],1<7[8:1],7<5[8:1],5>3[8:1],3,2,{4}1-7[16:1]*-6[12:1],
1b-4[12:1]*-5[12:1],1,{8}6/1,{24}7/8,6/1,5/2,{8}3/4V62[6:1],6/1,
{4}4/3-6[12:1]*-7[12:1],3,{8}3/8,{24}2/1,3/8,4/7,{8}6/5V38[6:1],3/8,
{4}5/6-8[16:1]*-1[12:1],6,{8}2/7,{24}1/8,2/7,6/3,{8}4/5,2bh[4:1]/7bh[8:3],
,,2,3/7,8,1/2-6[12:1],3,2/4,
5bh[2:1],,,6<4[8:3],{4}6,{8}6,6h[8:5],
,,,5>7[8:3],{4}5,{8}5,5,
{2}5<3[8:3],{4}B3/B4/E4/B5/E5,{8}3,3/5,
,3>5[8:3],{4}3/4,{8}B6/B7/E7/E6/B5,,,6,
5/4h[2:1],,,3>5[8:3],{4}3,{8}3,3h[8:5],
,,,4<2[8:3],{4}4,{8}4,4,
{2}4>6[8:3],{4}B5/E5/E6/A5/B4,{8}6,6/4,
3/5,B2,6/4,E8,2/5,B1/B2,3/7,B6/B5/B4,
{1}Cf/2b>5-8q4<5q1-4<7[4:11],
,,{4},,,{8},E8,
B7,,,B2,B3,,,B7,
B6,,,B3,E4,,,B5,
{1}Ch[2:3],
{4},,{48}B2,B3,{24}B4,,,,,{4}B1,
{8}4,3,7,6,{32},,,,3x,4x,,,3x,4x,,,3x,4x,,,2x,
3x,,,2x,3x,,,,,,,{8}7,{16}5,6,{8}5,6,7,
3,2,6,5,{32},,,,6x,5x,,,6x,5x,,,6x,5x,,,7x,
6x,,,7x,6x,,,,,,,{8}2,{16}4,3,{8}4,3,2,
8,7,2,3,{32},,,,2x,3x,,,2x,3x,,,2x,3x,,,3x,
4x,,,3x,4x,,,,,,,{8}6,{16}4,5,{8}4,6,5,
7,{16}7,4,{8}7,{16}7,3,{32}7x,6x,,,3x,4x,,,6x,5x,,,2x,3x,,,{2}Ch[2:1],
{4}B7/E7/B6/B2/E3/B3,1/5,
{1}7b/3bs7[4:5],
,5/1s5[4:5],
{4}E6,E7,E8,E1/B1/B8,
2/5,3/4,5/4,7/5,
6/8,8/7,8/1,1/3,
{8}2/4,3/5,4/6,5/7,6/8,7/1,2/8,1/3,
{16}2,4,3,5,4,6,5,7,6,8,1,7,8,5,4,1,
{4}2>6[8:1],{8}2,{64}A8,D1,A1,D2,A2,D3,A3,D4,{4}A4/1x-6[12:1],1b/5h[4:1],
{24}7x,8,1,2,3,4,5/6,7/4,8/3,1,,,{8}3/8,{16}3,4,,2,{8}1,
7/4,{16}6,5,,8,{8}1,2/6,{16}3,4,,7,{8}5h[8:1],
{24}2x,1,8,7,6,5,4/3,5/2,6/1,8,,,{8}6/1,{16}6,5,,7,{8}1,
2/5,{16}3,4,,1,8,2,{8}7b/3b,{16}6,5b,,2,{8}4bh[8:1],
{24}6bx,7,8,1,2,3,4/5,3/6,2/7,8,,,{8}3/6,{16}7,8,,3,{8}5,
4/7,{16}2,1,,6,4,5,{8}3,{16}1,8,,6,5,2,
{8}4,{16}6,4,{4}7h[8:1],{16}3,5,{8}3h[8:1],{16}8,2,{8}7h[8:1],
{4}5,{32}7b/5b,6,{16}5,{32},,1b/3b,2,{8}3,{32}6b/8b,7,{16}6,{32},,2b/4b,3,{8}4,
{24}7/5V31[8:3]*V71[8:3],{4},,{16},,{24},{48}A7/A1,B7/B1,Cf,B5/B3,{24}A5/A3,,,,,{8}3/8,
{16}2,1,4,5,8,7,{8}3/5,{16}2,1,5,6,3h[8:1],4,
{24}1x,8,7,6,5,4,3/2,4/1,5/8,6,,,{8}7/4,{16}8,1,7,6,1,2,
{8}3/8,{16}1,2,4,3,8,1,2b/7b,,,3b/4b,,,{8}5b/6bh[8:1],
{24}8x,1,2,3,4,5,6/7,5/8,4/1,3,,,{8}2/5,{16}1,8,3,4,8,7,
{8}6/1,{16}8,7,5,6,1,8,{8}7/2,{16}5,6,3,4,1,8,
3/7,3h[16:3],,5,{8}5h[16:3],{16}7,7h[16:3],,1,{8}1h[8:1],{16}4,2,{8}5h[4:1],
{4}2h[4:1],{8}5,3h[8:1],6h[8:1],4,{4}7-3[8:1]/5-1[8:1],
{1}7b/Cf/5b-3-1-7-5[2:3],
{8},,,,,,2,2,
{2}2h[2:1],{4}3,{8}6,6h[8:5],
,,,,5,,,3,
4/5h[2:1],,,6<4[8:3],{4}6,{8}6,6h[8:5],
,,,5>7[8:3],{4}5,{8}5,5,
{2}5<3[8:3],{4}4,{8}3,5,
4,6,5,3,6,4,3,5,
{1}Cf/6-1-4-8-2-6b[4:15],
,,,{4},,,{8},B8,
E7,,,B2,{4}E3,{8}E7,E6,
,B1,{4}Ch[8:13],
E
