&title=Lament Rain
&artist=Ashrount vs. 打打だいず
&first=0
&des=Wu feat. Dororo
&lv_5=14+
&inote_5=(200)
{16},,,,,,,,,,,,{32}E2,E8,E3,E7,E4,E6,E5,,
{1}4xb>5[4:7]/5xb,,4>1<8<5[4:7],,4>2<1<8<7<5[4:7],,3>2<1<8<7<6[4:3],2^1^8^7b[2:1],
{8}4b-1[8:1],,,8b-2-4-6-1-3-7-5[16:18],,3x,3xh[1:1],,,,,,,,,,
{8}4b^7[8:1]/2,,,1q6-4v3-8b[8:7],,7x,7x-4v3-1-6[4:3],,,,,,,,,,
{8}E6f/B6/B5/2h[8:1],,2h[8:1],,2h[8:1],,2h[8:1],,
{8}E3f/B3/7h[8:1],,7h[8:1],,7h[8:1],,7h[8:1],,
{8}E8f/3,3,3,3,{16}3,1,3,8,3-8b[8:1],7,3,6,
{1}3v4-6z2[8:5]/5x,
{24}D6,D4,D7,D3,D8,D2,{8}1xb-5-1[4:1]/8xb,,7,7xb-3-7[4:1],,2,2xb-6-2[4:1],,8,8xb-4b[8:1],,1,1b/A4f/D5/D4,,
{8}2h[16:1]/8h[16:1],2h[16:1]/8h[16:1],3h[16:1]/7h[16:1],3h[16:1]/7h[16:1],4h[16:1]/6h[16:1],4h[16:1]/6h[16:1],{16}5xpp2^1-3[4:3],5x,5x,5x,
{2}5x,{16},,,,,,,,
{16}D2f/A1/A2/E1/B1/B2/E3/7h[8:3],,,,,,{24}5x-8[8:1],4x,3x,{16}2x,,,,,,1b-4[8:1]/4b-1[8:1],,
{16},,1b/4b,,,,5h[8:1],,4h[8:1],,6h[8:1],,5h[8:1],,4,,
{16}6^3[8:1],,7/4h[8:3],,,,{24}D3,D2,D1,{16}D8,,4,,4,,4-8[8:1]*-7[8:1],,
{16},,4,,,,1x/7x,2x/6x,3x/5xs1[8:1],,,,,,,,
{16}3xb/7xb,,,,,,{24}4x,6x,4x,{16}7xV51[4:1],,3,,7,,2-5[8:1],,
{16},,28,,,,6,,5b-1[8:1]/7b^4[8:1],,,,,,,,
{16}A2/E2/B2/A6f/E7/B6,,,,,,3x,3x,4xh[16:3],,,5xh[16:3],,,6x,6x,
{16}5xh[16:3],,,4xh[16:3],,,3x,3x,1x^6[8:1],,,,1,,{24}4x,3x,2x,
{16}1xh[8:3]/5xb,,,,,,{24}4x-1[8:1],5x,6x,{16}7x,,,,,,8b-5[8:1]/5b-8[8:1],,
{16},,8b/5b,,,,4h[8:1],,5h[8:1],,3h[8:1],,4h[8:1],,5,,
{16}3^6[8:1],,2/5h[8:3],,,,{24}D7,D8,D1,{16}D2,,5,,5,,5-1[8:1]*-2[8:1],,
{16},,5,,,,8x/2x,7x/3x,6xv5[8:1]/4xv3[8:1],,,,,,,,
{16}1b/8b,,,,56,,4b/7b,,,,34,,2b/5b,,,,
{16}7,8,1b/6b,,,,2,1,3b/8bw4[8:1],,,,8b,,,,
{16}2,6,2,6,2,6,2,6,2,6,2,6,2,6,2,6,
{16}1,7,8,7,1,7,8,7q4[16:3],1-4[8:1],,,,,,,,
{16}3,4,3,4,2,,2,8,2,8,4,,4,5,4,5,
{16}3,,3,1,3,1,5,,5x^2[8:1],,,,{24}8b,7x,6x,{16}5x,,
{16}1,4,1,4,3,,3,5,3,5,1,,1,4,1,4,
{16}3,,2,1,2,,3,4,,6,5,,4b/8b,,,,
{16}2,4,3,5,4,6,5,7,5V31[4:1],,,,8,7,6,5,
{16}4xV68[4:1],,,,1,2,3,4,5xV31[4:1],,,,8,7,6,5,
{16}4x^7[8:1],,,,2,,2-6[8:1],,,,1^4[8:1]/2,,,,{24}8b,7x,6x,
{16}5x,,2x/7x,,,,65,,4/5w1[8:1],,34,,,,,,
{16}7bv6-4[8:1]/3x-8b[8:1],,,,,,,,{12}1xbh[6:1],,4xbh[6:1],,7xbh[6:1],,
{16}6xh[8:1],,8xh[8:1],,2xh[8:1],,3x,4x,2x,6x,5x,7x,{32}1-5[8:1],2,3,4,8,7,6,5,
{16},,,,3xb/7xb,,6,4,6,4,8,,8,5,8,5,
{12}6xh[12:1]/7xh[12:1],,5xh[12:1]/8xh[12:1],,1xh[12:1]/4xh[12:1],,{16}2^5[8:1]/3,,,,{24}1bw5[8:1],8x,7x,{16}6x,,
{16}1b,,,,7,5,6,2,4,3,7,8,6xb-4[8:1]/1xb-5[8:1],,,,
{16},,,,2,4,1,7,5,8,3,4,2xb-5[8:1]/5xb-1[8:1],,,,
{16},,,,7,5,6,2,4,3,7,8,6xb-4[8:1]/1xb-5[8:1],,,,
{16},,,,1,4,3,7,5,8,2,4,3,7,5,6,
{16}2xb,,2,,2xb/1,,2,,2xb/8,,2,,2xb/7,,2,,
{16}2/6xb,,6,,6xb/3,,6,,6xb/4,,6,,6xb/5,,6,,
{16}5b,7,5,7,4b,6,4,6,3b,5,3,5,2b,4,2,4,
{16}3x,3x,3x,3x,3x-7[8:1],3x,3x,3x,Cf,,,,,,,,
||降难度
{48}1h[8:1]/2h[8:1],,,,,,,,,3h[8:1]/4h[8:1],,,,,,,,,12,,,,,,8b/3b,,,,,,,,,,,,
{48}5h[8:1]/7h[8:1],,,,,,,,,4h[8:1]/6h[8:1],,,,,,,,,3h[8:1]/5h[8:1],,,,,,,,,2h[8:1]/4h[8:1],,,,,,,,,
{48}D8,E8,A7,E7,A6,E6,D6,,,,,,,,,,,,,,,,,,
{48}5h[8:1]/3h[8:1],,,,,,,,,2h[8:1]/8h[8:1],,,,,,,,,53,,,,,,6b/2b,,,,,,,,,,,,
{48}1h[8:1]/4h[8:1],,,,,,,,,2h[8:1]/5h[8:1],,,,,,,,,3h[8:1]/6h[8:1],,,,,,,,,7h[8:1]/4h[8:1],,,,,,,,,
{48}D2,A2,D3,A3,D4,A4,D5,A5,D6,,,,,,,,,,,,,,,,
{48}8h[8:1]/7h[8:1],,,,,,,,,6h[8:1]/5h[8:1],,,,,,,,,87,,,,,,1b/6b,,,,,,,,,,,,
{48}4h[8:1]/2h[8:1],,,,,,,,,5h[8:1]/3h[8:1],,,,,,,,,6h[8:1]/4h[8:1],,,,,,,,,7h[8:1]/5h[8:1],,,,,,,,,
{48}D2,E2,A2,E3,A3,E4,D4,,,,,,,,,,,,,,,,,,
{16}5x/7x,5xh[8:1]/7xh[8:1],,,1xh[8:1]/8xh[8:1],,,2xh[8:1]/4xh[8:1],,,1x-5[8:1],8x-4[16:1],1x,,,,,,
{48}3b/6b,,,,,,,,,2b/7b,,,,,,,,,1bs5[8:1]/8bz4[8:1],,,,,,{16},,,,,{48},,,
{32}2xb-4[8:1]/6xb,,,,,,,,28,,,,,,7,,5-1[8:1],,,,5,,,,6,,,,6,,,,
{32}2-4[8:1],,,,4,,,,2,,,,7,,,,5w1[8:1],,,,5x,,,,,,,,,,,,
{32}7xb-5[8:1]/3xb,,,,,,,,71,,,,,,2,,4-8[8:1],,,,4,,,,3,,,,3,,,,
{32}7-5[8:1],,,,5,,,,7,,,,2,,,,4w8b[8:1],,,,4x,,,,,,,,,,,,
{16}2xb,,2,,42,,4,,45,,5,,57,,7,,
{16}7/8xb,,2,4,3xb,,7,5,6xb,,1,4,3xb,,8,5,
{8}6xb,3x/7x,3x/7x,3x/7x,{16}2,8,2,8,{16}1q4b[1:1],1,1,1,
{1},
{1}5x<4>5[2:15],Ch[32:1],
{8},,,,,,E4,,
{8}Ch[32:1],,,,,,,,
{8},,,,,,E7,,
{8}Ch[32:1],,,,,,,,
{8},,,,,,E2,,
{8}Ch[32:1],,,,,,,,
{2}2q5[1:1],8,Ch[32:1],6,
{2}7p4[1:1],1,Ch[32:1],3,
{2}2>8[2:3],4<2[2:3],Ch[32:1],8>6[2:3],
{2}2>6[1:1],4^6[2:1],Ch[32:1],{8}8bw4[8:1],2b/6b,,,
{16}E8/D8/A8f/A7/E1/D1/A1,,,,3,,4,,5,,6,,3,,3,4,
{16}2,,2,,6,,6,5,7,,7,,2,,2,4,1,,1,,7,,7,5,8,,8,,2,,{24}2x,3x,4x,
{8}5x/8,,7,{24}7xs3[4:1],6x,5x,4x/1,,,,,,,,,,,,
{8}2xb/4xb,24,35,35,46,46,57,57,
{16}4b,8,4,8,4,8,4,8,{32}4x,5x,6x,7x,8x,1x,2x,3x,4x,5x,6x,7x,8x,1x,2x,3x,
{1}8xb/4xw8[2:1],
{16}A7,E7,E6,A5,B8,C,B4,A4,A1,E2,E3,A3,8xb,,,,
{8}1b-5[8:1],,{16}1/5,6,{8}7-4[8:1],3,2-6[8:1],1,2-8[8:1]/7-4[8:1],
{8},27,,5,4,36,2-5[8:1]/7-4[8:1],18,
{8}2b/7b,,{16}6-1[8:1],4,{8}7,2-6[8:1]/6,3,28,8^5[8:1],
{8},{24}4,3,2,{16}1b,,,,2,4,3,,28,,7,5,
{8}6b-2[8:1],,1<6[8:1]/6,3,1xb/4b,,2x-6[8:1],1,
{4}2xb>5[8:1]/5xb<8[8:1],2xb/5xb-1b[8:1],7xbh[4:1],{8}2,{24}7x,6x,5x,
{16}4xb/1h[16:3],,,7h[16:3],,,{24}2x,3x,4x,{16}5xb/8xh[16:3],,,2h[16:3],,,{24}7x,6x,5x,
{16}8xbh[16:1]/4,,1xb/7xb,,2xb/6xb,,3xbh[4:1]/5xb,,{8},8,{32}8x,1,2,3,4,5,6,7,
{8}8b-4[8:1],,{16}8/4,3,{8}2-5[8:1],6,7-3[8:1],8,7-1[8:1]/2-5[8:1],
{8},72,,4,5,63,7-4[8:1]/2-5[8:1],81,
{8}7b/2b,,{16}3-8[8:1],5,{8}2,7-3[8:1]/3,6,71,1b>7b[4:1]*q7[4:1],
{8},{48}D2f,A2,D3,A3,D4,A4,D5,A5,D6,A6,D7,,{8},,8x,1x/7x,3x/5x,
{16}6hb[4:1]/2,,,,1,7,1,7,{24}2,3,4,8,7,6,{8}15,1,
{16}7/3hb[4:1],,,,8,2,8,2,{24}7,6,5,1,2,3,{8}48,8,
{16}6hb[4:1]/2,,,,1,7,1,7,{24}2,3,4,8,7,6,{8}15,1,
{16}2,8,2,8,3,7,3,7,{32}4,5,6,7,8,1,2,3,4,5,6,7,8,1,2,3,
{1}4x/8b-4[2:3],{4},,,{8}8,8<1[8:11],
{2},E1,
{8}C,,,,E5f,,,,
{16}2b/8b,,3b,4,3,,1b/7b,,6,5,6b,,18,,2b,4,
{16}3b,5,4,6,5b,7,1,8,{24}2b,,,3b/4b,,,
{16}6b/5b,,7b,5,6,,8b/1b,,2,4,3b,,8,1,7b,2,6b-1[8:1],,3-7b[8:1],,
{16}6b,,3,,8b,,8b,,2b/4b,,1b,6,3,,5b/7b,,8,3,6b,,
{16}25,,3b,4,2b,7,5,6,1b,8,1,8,{24}2,3,4,7,6,5,
{16}1b,,7b,5,6,,{24}2b,3x,4x,5x,,,1b,2x,3x,
{24}4x,,,8b,1x/7x,2x/6x,{16}3x-6[8:1]/5x,,,,7-2[8:1]/3b,,,,5/7b,,,,
{16}3,1,4,8,2b,,6,8,5,1,7b,,2,4,3,5,
{16}4b,6,5,7,8b,6,1,7,2b,8,3,1,{24}4b-1b[8:1],8,4,8,4,8q6[24:37],
{1}4bp7[2:3],,
{1}8^5[2:3]/5qq4[2:3],,3xh[1:1],4xh[1:1],5xh[1:1],6xh[1:1],4>3>2<1<8<7<6>5[1:2],,,,E
