&title=GOODRAGE
&artist=EBIMAYO
&first=0.04
&des=DU.neck
&lv_5=14+
&inote_5=(222)
{4},,,,
{16}5h[4:1]/4<4[2:1],,,,,,,,5,6,7,8,1,2,3,4,51h[4:1]/1h[4:1],,,,,,7h[4:1]/3h[4:1],,,,,,,,,,
{16}8>8[2:1]/1h[4:1],,,,,,,,1,2,3,4,5,6,7,8,1h[4:1]/5h[4:1],,,,,,46,,,,28,,,,,,
{16}1<1[2:1]/8h[4:1],,,,,,,,8,7,6,5,4,3,2,1,8h[4:1]/4h[4:1],,,,,,2h[4:1]/6h[4:1],,,,,,,,,,
{16}1-5[8:1],,,8,1,,7,,8-4[8:1],,,1,8,,2,,1w5[8:1],,,,1,,,,37,,37,,28,,28,,
{8}1-3[8:1],,8,,1-4[8:1],7,1,,1-5[8:1],,8,8,,37,,2,
{8}8-6[8:1],,1,,8-5[8:1],2,8,,8-4[8:1],1,,2,,53,35,46,4/6-8[8:1],
{8},5,,6-1[8:1],4,6,,6-2[8:1],,5,5,,37,,2,
{8}7<4[8:1],,78,,2>5[8:1],,1/2,,6,6,2,2,
{16}8,1,8,,27,,,,
{8}1b<6[8:1],5,1,4,1>4[8:1],5,1,6,1,
{16}7,8,7,,26,,1,8,1,,72,,3,,
{8}8b>3[8:1],4,8,5,8<5[8:1],4,8,3,8,
{16}2,1,2,,37,,18,,18,,27,,
{8},4,4,5,5,6,6,7,7,8,8,1,1,2,2,3,3,
{16}4,5,6,7,8,1,2,3,48,7,6,5,4,3,2,1,8p5[2:1]*pp4[2:1],,,,
{4},,,
{16}2h[4:1],,,,1,,1,,2,3,4,,8-4[8:1],,8,,5>2[8:1],,,,6,,7,,,,78,,78,,16,,
{8}5h[4:1],,3,3,2-6[8:1],4,2,,
{16}5,,8,1,2,,6,,37,,37,,5>2[8:1],,,,
{16}6h[4:1],,,,1,,1,,6,7,8,,3<6[8:1],,3,,8-4[8:1],,,,1-3[8:1],,1,,7-5[8:1],,7,,8,,
{8},1-5[8:1],7-3[8:1],1,7,2-6[8:1],8-4[8:1],2,8,1<5[8:1],5>1[8:1],1,,6-2[8:1]*-1[8:1],,,,
{16}3h[4:1],,,,7,,7,,3,2,1,,6>3[8:1],,6,,1-5[8:1],,,,8,,7,,,,56,,56,,47,,8h[4:1],,,,3,,3,,2-6[8:1],,1,,2,,,,
{16}8,,5,4,3,,7,,26,,26,,1-5[8:1],,,,7h[4:1],,,,4,,4,,7,8,1,,5>2[8:1],,5,,8,,,,7-5[8:1],,7,,1-3[8:1],,1,,8,,,,
{8}7-3[8:1],1-5[8:1],7,1,8-4[8:1],2-6[8:1],8,2,7<3[8:1],3>7[8:1],7,,5w1[8:1],,,,
{16}7h[4:1],,,,8,,8,,7,6,5,,1-5[8:1],,1,,4<7[8:1],,,,3,,2,,,,81,,81,,27,,
{8}5h[4:1],,3,3,2-6[8:1],4,2,,
{16}5,,8,1,2,,6,,37,,37,,5>2[8:1],,,,
{16}6h[4:1],,,,1,,1,,6,7,8,,3<6[8:1],,3,,8-4[8:1],,,,1-3[8:1],,1,,7-5[8:1],,7,,8,,
{8},1-5[8:1],7-3[8:1],1,7,2-6[8:1],8-4[8:1],2,8,1<5[8:1],5>1[8:1],1,,6-2[8:1]*-1[8:1],,,,
{8}3,,3,4,3,4,3,5,3,,63,6,3,5,53,6,37,,3,7,3,8,38,,3,
{16}1,8,73,,
{8}6,3,3,45,,6,6,7,7,8,8,1,1,2,2,3,3,4,4,5,5,
{16}6b,7,8,1,2,3,4,5,1b,2,3,4,5,6,7,8,5b,4,3,2,1,8,7,6,2b,3,4,5,6,7,8,1,2h[1:1]/6,,,,
{4},,,4h[1:1],,,,6h[1:1],,,,8h[2:1],,,,1h[2:1]/7h[2:1],,,,6h[2:1]/3h[2:1],,,,7h[2:1]/5h[2:1],,,,1h[2:1]/8h[2:1],,,
{16}1,2,3,4,51,,,,8,,8,,1/7<4[8:1],,,,78,,,,1h[4:1],,,,8,,8,,2>5[8:1],,,,12,,,,
{8}7h[4:1],,5,5,6<1[8:1],,56,,4h[4:1],,5,5,3>8[8:1],,34,,
{16}6,,,,8,,8,,7,,1,8,1,,72,,6,,3,4,2,,6,5,7,,3,4,1,,6,,18,,27,,36,,78,,16,,25,,21,,83,,47,,,,5,,5,,4<4[4:1],,4,,,,,,
{16}6h[4:1],,,,5,,5,,7,8,1,,3<6[8:1],,3,,
{16}8-4[8:1],,,,1,,1,,,,34,,34,,25,,
{16}1h[4:1],,,,7,,7,,2-6[8:1],,8,,2,,,,7,,5,4,3,,6,,15,,15,,4/8>3[8:1],,,,
{16}6h[4:1],,,,5,,5,,7,8,1,,4,,4,,3-5[8:1],,,,36,,7-4[8:1],,,,8,,8,,1,,
{16}2h[4:1],,,,1,,1,,8-4[8:1],,1,,8,,,,2,,5,6,7,,3,,48,,48,,15,,,,
{8}4,4,3,3,2,2,1,1,8,8,7,7,6,6,5,5,
{16}4,5,4,5,3,6,3,6,2,7,2,7,1,8,1,8,1s5[2:1],,,,,,,,,,,,,,,,
{16}7b/3b,,,,2,,2,,8,7,6,5,48,,26,,3,,3,4,2,,6,7,5,,3,4,1,,86,,7-4[8:1],,7,,8,,1,,2-5[8:1],,1,,2,,8,,7,,7,,1,,1,,8,1,8,,2>5[8:1]/7,,,,
{16}1b/2b,,,,8,,8,,4,3,2,1,84,,26,,6,,6,5,7,,3,4,2,,6,5,8,,13,,2-6[8:1],,2,,8-4[8:1],,8,,3-6[8:1],,3,,7-2[8:1],,7,,5b,,,,48,,48,,73,26,15,84,7,6,5,4,3b/7b,,,,
{16}6,,6,,8,1,2,3,48,,62,,7,,7,8,6,,2,1,3,,7,8,5,,2,3,4/8,,2-5[8:1]/6-1[8:1],,,,26,,,,84,,37,,26,,1,,26,,37,,8/4-7[8:1],,,,8,,8w4[8:1],,,,
{16}8b,,,,34,,2,,17,,8,1,8,,2,,73,,6,5,7,,3,4,2,,18,,72,,63,,4/5<8[4:1],,,,1,,2,,3>8[4:1],,,,7,,6,,5,,4,,12,,45,,78,,
{32}1b,2,3,4,5,6,7,8,1,,,,
{4}8b-4[8:1],7b-3[8:1],6b-2[8:1],5b-1[8:1],4b-8[8:1],3b-7[8:1],2b-6[8:1],
{8}1b,1b,
{16}1b,2,3,,2b,3,4,,1b,2,3,,2b,3,4,,1h[4:1],,,,,,8<5[8:1]/2>5[8:1],,,,8/2,,,,,,
{8}4,4,3,3,2,2,1,1,78,78,56,56,34,34,12,12,
{16}2b,3,4,5,8b,7,6,5,
{32}1b,2,3,4,5,6,7,8,1b,2,3,4,5,6,7,8,1b>1[2:1],,,,,,,,
{4},,5w1[8:1],5b,
