&title=マジック・メイド (feat. 重音テト)
&artist=MIMI
&first=-0.24
&des=小歌套14+配置,是什么感觉。。
&lv_5=13
&des_5=小歌套14+配置,是什么感觉。。
&inote_5=
(176){4},,,,3h[4:3],
{8}4,4,,5,{4}6,
6h[1:1],{8}5,5,,4,{4}3,
3h[8:3],{8}B4,B5,,5,{4}6-2>5-1[2:1],
{1}2h[4:3],
{4}6h[4:3],{8}5,5,,4,{4}3,
3h[4:3],{8}4,4,,5,{4}6-2-4-8-6[8:5],
3h[2:1],,,3-7-5-1[2:1],
{1}7h[4:3],
{4}3h[4:1],{8}4,3/5-8[8:1],,2,,3,
{4}3h[4:1],{8}6,7/5>3[8:1],,6h[4:1],,,{4}2>5[4:1],
5<8[4:1],8>3[4:1],3<6[4:1],
6,{8}7pp4[8:3],7,,3,{4}3h[4:1],
5,{8}6,7/5>2[8:1],,8,{4}7,
6h[4:1],{8}3,2/4-6[8:1],,3h[4:1],,,{4}6h[8:1]/4h[8:1],
3h[8:1]/5h[8:1],{8}4,5,{4}3V57V13[4:3]/6V42V86[4:3],
{8},,,,,,,,E6,
E5,E4,E3h[8:3],,B1/B8,{4}B7/B6,
{8}E4,E5,E6,E7h[8:3],,B8/B1,{4}B2/B3,
{8}E3,E4,E5,E6,A2,A3,A4,A5,
E4,E5,E6,E7,{4}1b,2-5[8:1]/6-1[8:1],
2bx/6bx,{8}4/8,3/7-4[8:1],,2,3,3V17[4:1],
,7V13[4:1],{4}6,4,{8}5,6,
{4}7<4[8:1],{8}4,3,{4}2>5[8:1],6v5-7-4-6[8:5],
2bh[2:1],{8},,,,2,2,
8,7,5,4/6V82[4:1],,2V86[16:3],,3,
,5,4,3,{4}2>5[8:1],{8}5,6,
{4}7-3[8:1],{8}3,2,{4}1bw5b[8:1],1bx,
{8}3bx/7bx,,,,,5,{4}4/6<2[4:1],
2<6[4:1],B3/E3/B2,B5/B4/E5,{8}3,3,
{4}2/4xpp4[4:1],4xqq4[4:1],B4,{8}8,8,
{4}2-8[8:1],{8}3,4<6[8:1],,3,{4}3h[4:1],
{16}8b,,,8b,,,{8}8b,,,{4}3/5-1[8:1],
2,{8}4/8,3/7-4[8:1],,2,3,3>8[4:1],
,8q4[4:1],{4}7bx,5bx,{8}5,6,
{4}7<4[8:1],{8}4,3,{4}2-8-4[4:1],4,
{1}6p4>6[8:5],
{16}4,,,5,{8}4,6h[4:1],,5,4,3,
{16}4/2,,,3,{8}4,2h[4:1],,1,8,7,
{16}1/8,,,8,{8}1,2/7h[4:1],,3,4,5,
{16}6/3,,,5,{8}4,5,5/4,5,3/5,5,
{16}5/2V46[4:1],,,1,,,{8}8,,7,6,4/5,
{16}3/6V82[4:1],,,5,,,{8}4,,3,2,8/1,
{16}7/2pp8[16:5],,,5,,,{8}6,,7,4/5<8[4:1],6/3,
1,2,3,4>1[4:1],,8,7,6,
{4}5q3>6[4:7],B4,C,B8,
B2,B4,C,B8,
1>4[4:1],4<7[4:1],7>2[4:1],2>5[4:1],
5<1[4:1],1>5[4:1],{2}5<1[4:1],
{8}6xh[4:3],{16}B2,B3,{8}B4,B5/B6,,B8,{4}B2,
{8}3h[8:3],{16}B5,B6,{8}B7,B8/B1,,6/3,{4}3V57V13[4:3]/6V42V86[4:3],
{8},,,,,,,,C,
{16}E6,E5,{8}E4,C,B7/B8,B1/B2,B6/B5,B4/B3,
Ch[2:1],{16},,,,1,2,{2}3h[1:1],
{8}C,,,6,{2}7h[8:7],
{8}C,{16},,,,1,2,{2}3h[1:1],
{4}4,4,{2}4w8[8:1],
{4}2b/6b,{8}3/5,4/6-8-5[4:1],,5-1[8:1],4,3,
2>5[8:1],3,{4}6/2bxV84[4:1],8b/2x,{8}6,6,
5/2,{16}3,4,{8}3,7/4,{16}6,5,{8}6,1-5[8:1],7-5[8:1],
1-3[8:1],7-3[8:1],1<2[4:1],7,{4}1b,{8}7,6,
{4}5/1-5[8:1],{8}1,7v4V68[4:1],,8,1x-5[8:1],2x-4[8:1],
1x-7[8:1],2x-6[8:1],1x-3-5-7[4:1],2x,{4}1bx,{8}1,1,
2/7>2[8:1],6,7/3-7[8:1],4,{4}3/5w1[8:1],5b,
{8}7x/3x,{16}B6,B5,B4,B3,B2,B1,B8,B7,B6,B5,{4}3x>7[4:1],
7>3[4:1],E7/B7/B6,E5/B5/B4,{8}6,6,
{4}7/5xqq5[4:1],5xpp5[4:1],B5,{8}1,1,
{4}7-1[8:1],{8}6,5>3[8:1],,6,{4}6h[16:7],
{16}1b,,,2b,,,{8}3b,,,{4}8w4[8:1],
{8},,4x,5/3-1-4[4:1],,4-8[8:1],5,6,
7<4[8:1],6,{4}3/7bxV15[4:1],1b/7x,{8}4,3,
{4}2>5[8:1],{8}5,6,{4}7V15[4:1]*V15[4:1],5b,
{8}3bw7b[8:1],,,,,2,3,4,
{16}6h[16:1]/5h[16:1],,,5h[16:1]/6h[16:1],,,{8}4bxh[16:1]/7bxh[16:1],,7,1/8,2,
{16}4h[16:1]/3h[16:1],,,4h[16:1]/3h[16:1],,,{8}5bxh[16:1]/2bxh[16:1],,3,2/4,6,
{16}5bxh[16:1]/7bxh[16:1],,,6h[16:1]/4h[16:1],,,{8}5h[16:1]/3h[16:1],,4,3/5,6,
{16}2bxh[16:1]/7bxh[16:1],,,5h[16:1]/4h[16:1],,,{8}1bxh[16:1]/8bxh[16:1],,7,8/6,1,
2bx/8bx,{16}3x,4,{8}3,7bx/1bx,{16}6x,5,{8}6,7/4,6/3,
{32}1bx,2,{16}3h[8:1],{32},,8bx,7,{8}6h[8:1],{32}2bx,3,{16}4h[16:3],,,{8}5,6,4/5,
{16}3h[16:3],,,4h[16:3],,,{8}5h[8:1],6,6,4/6,6,
3/4,3,3/5,3,3/6,3,{4}2b/7b,
{8}6h[1:1]/C,,,Ch[8:1],,,{4}E6,
{8}E5,,,4h[8:1]/5h[8:1],,,{4}7-4[8:1]/3-8[8:1],
7b/3b,{8}5/1,6/2,{4}3/7-5[8:1],3bv4-2-5-3b[8:5],
7bxh[2:1],{8},,,,7,7,
1,2,4,5/3bxV17b[4:1],,7bx>3b[4:1],,6,
,4,5,6,{4}7<4[8:1],{8}4,3,
{4}2-6[8:1],{8}7-3[8:1],7,5-1[8:1],5,8-4[8:1],8,
2w6[8:1],,,,,4,{4}5/3b>7b[4:1],
7b>3b[4:1],B6/E7/B7,B4/B5/E5,{8}7,7,
{4}5bqq5b[4:1],5bxpp5b[4:1],B5,{8}1,1,
{4}7-1[8:1],{8}6,5>3[8:1],,6,{4}6<1[8:1],
{16}6bx/2-6[32:3],,,2bx/8x-3[32:3]*-5[32:3],,,{8}8bx,,,{4}6/4-8[8:1],
7,{8}5/1,6/2-5[8:1],,8,7,4x/6bx<1b[4:1],
,1bxV75b[4:1],{4}2b,4b,{8}4,3,
{4}2-6[8:1],{8}7-3[8:1],7,5-1[8:1],5,8-4[8:1],8,
{1}2bq5<3b[8:5],
Ch[2:3]/8<1[4:5],
{4},,,8bxw4b[8:1],
8bx,{8}8x-4[8:1],2-4[8:1],8-6[8:1],2-6[8:1],8>7[4:1],2,
8b,,,1,{4}2b/8b,{8}6-8[8:1]/1-5[8:1],8,
{4}6/1,{8}4h[4:1],{32}B5,B4,B3,B2,B1,B8,B7,B6,{8}B5,8x-4[8:1],7x-5[8:1],
8x-2[8:1],7x-3[8:1],8xV64-2[4:1],7x,{4}8bx,{8}8w4[8:1],7/1,
{4}8,{8}2x/6x-1[8:1],7,6/3-6[8:1],4,3/7,8,
{16}1/7h[4:1],2,3,4,5,6,7,8,1,2,3,4,{4}8b/5,
{32}8bx,7x,6x,5xh[32:3],,,8bx>4b[8:1],7x,6x,5xh[32:3],,,{8}8bx,,1x,1x,7,
{32}1bx,2x,3x,4xh[32:3],,,1bx<5b[8:1],2x,3x,4xh[32:3],,,{8}1bx,,8-4[8:1],1/7,8,
2,{16}6,5x,{8}7x,8/1,,3,8bx<5b[8:1],1,
{16}8bx>3b[32:3],,,8bx-4b[8:1],,,{8}8bx,,,2-4[8:1]/5-1[8:1],1,
{4}5/2,{8}3x,5/3-5[8:1],,8,7,6b<2b[4:1],
,2bp6b[4:1],{4}3bx,5bx,{8}4,3,
{4}2-6[8:1],{8}7-3[8:1]*-3[8:1],7,5-1[8:1],5,8-4[8:1]*-4[8:1],8,
2bw6b[8:1],,,,,E6,B5,B4,
{16}E4,,,B2,,,{8}B7,,1,2,{24}6x,5x,4x,
{1}3<6[4:7],
E
