&title=ANDORXOR
&artist=Sobrem
&first=0.04
&des=
&lv_5=14
&des_5=GDTapefanboy
&inote_5=
(148){4},,,,{2}4h[4:1]/5h[4:3],
{4}4,3h[4:3],
6,5,4,3,
6/4h[4:1],5,3/5h[4:1],4,
6/5h[4:1],4,3/4h[4:1],5,
{2}5h[4:1]/4h[4:3],{4}5,6h[4:3],
3,4,5,6,
3b/6b,{24}2,3,4,5,6,7,8,1,2,3,4,5,6,7,8,1,2,3,
{4}4/8h[4:1],C,{2}8-4[8:1],
{4}3b/5b,4-7[4:1],7-5[4:1],5qq1[2:1],
{2}8h[4:1],6h[4:1],
{1}1b/5-2V48[4:3],
{2}3qq4[2:1],{4}5,6,
{2}5/8b-5[4:1],1-4[4:1],
{4}5>3[4:1],6,7>1[8:1],2,
{1}3b>6[4:3],
{2}5h[4:1],{8}4,3,2,1,
{4}2b/5b,{16}3,4,3,4,2,5,1,6,8,7,8,7,
{24}1,2,3,5,6,7,{16}1,8,1,8,{24}2,3,4,6,7,8,{16}2,1,2,1,
{4}3b,{16}2,1,2,1,3,8,4,7,5,6,5,6,
{24}4,3,2,8,7,6,{16}4,5,4,5,{24}3,2,1,7,6,5,{16}3,4,3,4,
{4}2b,{16}1,5,1,5,2,6,3,7,4,8,4,8,
{24}3,2,1,7,6,5,{16}8,4,8,4,{24}1,2,3,5,6,7,{16}4,8,4,8,
{8}3,3,7/3,3,{16}8,7,6,5,{24}8,1,2,3,4,5,
{1}8/6-1-4[2:1],
{24}4/8b,5,6,7,8,1,5,6,7,8,1,2qq6[24:13],{2}6V42[2:1],
,5h[2:1]/1-6[8:1],
{24}6,7,8,1,2,3,5,6,7,8,1,2qq5[24:13],{2}4>7[2:1],
{8},,,,5/8,1h[4:1]/4h[4:1],{24},,,,,,2,
3,4,5,6,7,4,5,6,7,8,1qq5[24:13],{2}5V31[2:1],
,6h[2:1]/2-7[12:1],
{24}7,8,1,2,3,4,{4}7/5-1[12:1],{16}8,,,8,,,{8}7,
{24}2/6,3,4,5,6,7,{4}8-4[8:1]/5-1[8:1],{2}5b/8b,
{24}8/3b,4,5,6,7,8,{4}1h[4:1],{16}8,1,,1,,1,{32},,8x,1x,
{16}8x,1,,1,,1,,8h[32:1],{24}1,2,3,4,5,6,{4}7b,
{24}1b/6,5,4,3,2,1,{4}8h[4:1],{16}1,8,1,1,8,1,8,2,
8,1,8,1,1,1,1,1,{4}1-5[8:1],8,
{24}4/8b,3,2,1,8,7,{4}6h[4:1],{16}7,5,7,6,7,6,7,5,
7,5,7,6,7,6,7,{32}6x,7x,{8}6x-2[8:1],8,{4}7,
{24}1b/7,6,5,4,3,2,{8}1b,{24}2,1,2,{16}1,3,,3,,3,,3,
{24}1,8,7,6,5,4,1,8,7,6,5,4,{2}3b/A7/B7/E7,
5/1h[16:1],{24}2b,3,4,5,6,7,3,4,5,6,7,8,
4,5,6,7,8,1,5,6,7,8,1,2,{12}6x,6x,6x,8xq4b[8:1],8x,8x,
{2}8x>3[8:1],{24}5b,6,7,8,1,2,6,7,8,1,2,3,
7,8,1,2,3,4,8,1,2,3,4,5,{2}6b/8bs4s8[8:5],
{24},,,,,,,,,,,,4b/6,3,2,1,8,7,3,2,1,8,7,6,
2,1,8,7,6,5,1,8,7,6,5,4,{4}8b-4-2[4:1],{8}5x,6x,
{4}7bh[4:1],{96}1,,,,,8,,,,,{48}1,{96},,,{32}7,{96},,{24}2,{4}6b-1[8:1],5,
8b/4bh[4:1],{96}6,,,,,5,,,,,{48}6,{96},,,{32}4,{96},,{24}7,{4}3b-8b[10:1],7v6-4[4:1],
{24},,,,,,,,,,,,3b/6,2,1,8,7,6,4,3,2,1,8,7,
5,4,3,2,1,8,6,5,4,3,2,1,{16}8b,4x,,4x,,4x,{32},,5x,4x,
{12}5x,3x,3x,6x,6x,4xh[24:1],{24}6b,7,8,1,2,3,5,6,7,8,1,2,
4,5,6,7,8,1,3,4,5,6,7,8,{2}1bV75-3[4:1],
8z4[4:1],{16}3x-7[4:1],,,2x,{32},,,1x,,,,,{8}8xq4[4:1],
7x,{16},6x,,,{8}5x-1[4:1],4x,{16},3x,,,{2}2x>5[2:1],
B3/B4,
6x<1[2:1],B8/B7,
{4}6b/2b,{16}3,4,5,6,2,3,4,5,1,2,3,4,
{4}8b,5/6,4/3,{16}A8,A7/A1,A6/A2,A5/A3,
{2}A4,Ch[1:3],
{8},E5,E6,E7,E8,E1,E2,E3,
E4,{16},,,,E2,E1,{2}E8,
{8},,,,6,7,8,1,
{16}2/Ch[1:3],,,,,,,3xh[16:1],,,,,,,,,,,{8}E5,
E4,E3,E2,E1,E8,E7,
{2}E6,E1,
{16}A1,A2,A3,A4,A5,A6,A7,A8,{4}A1,C,
4/6h[4:7],{8}7,1,{2}3,
{4}5,{8}8,2,{2}4,
{4}5/3h[4:7],{8}2,8,{2}6,
{4}4,{8}1,7,{2}5,
{4}7/2,{8}8,{16}8,1,,1,{8}6,{16}6,5,,5,
{8}7,{16}7,2,,2,{8}4,{16}4,3,,3,4,5,6,7,
{1}8/1w5[2:1],
{4}3/7q3[8:3]*p3[8:3],,,5w1b[16:1],
{32}5bx,B7/B3/Cf,{1},{4},,,{16},,,{4}7q2[4:1],
2b/A7f,4-6-1-3[4:1],1b/A4f,
8<3[4:1],3b/A8f,2pp6[4:1],6b/A2f,
7,{8}3/8<7-3-5[4:1],{16}2,2,{4}8,{8}1p4>2[4:1],{16}6,6,
{4}1q6<8[4:1],1-5-1-5[2:1],,,6bh[4:1],
{96}4,,,,,5,,,,,{48}4,{96},,,{32}6,{96},,{24}3,{4}7b-4b[8:1],2,
8b/2bh[4:1],{96}1,,,,,8,,,,,{48}7,{96},,,{32}6,{96},,{24}5,{2}3b/4b-7b[8:1],
{16}7-4[8:1]/2-5[8:1],6/3,,8/1,{4}7b/2b,{24}4b,3,2,1,8,7,3,2,1,8,7,6,
2,1,8,7,6,5,1,8,7,6,5,4,{16}3b,1,,1,,1,{32},,8x,1x,
{12}8x,2,2,7,7,1h[24:1],{24}7b,8,1,2,3,4,6,7,8,1,2,3,
5,6,7,8,1,2,4,5,6,7,8,1,{2}2b/5bp7[16:3],
{16}4,6,3,5,2,4,3,6,5,7,2,5,1-5[8:1],8,2,7,
{4}1b-6[8:1]*-4[8:1],1b,{2}7s3[4:1],
{4}2,{8}3/4qq2[8:1],{16}5,5,{4}6/4,{8}7/8qq6[8:1],{16}1,1,
{8}8/2-5[8:1],3,2/7-5[8:1],8,4-1[8:1]/7-2[8:1],3,{4}4/7,
{24}8,7,6,5,4,3,{32}E2,E3,E4,E5,E6,E7,E8,E1,{2}E2f/5xV71V35-1-5b[1:4],
E
